img image001 image001 image001 image001 image001 image001 image001 image001 image001 image001 image001 image001 image001 image001 image001

Planets Sun Sun Sun
Статистика раздачи
Автор: Nickolas3434 | Размер: 4.36 ГБ | Добавлен: 13 дек 2015
Раздают: 1341    Качают: 423
Скачать торрент
Скачать торрент
Описание торрента

СообщениеДобавлено: 13 дек 2015 


Информация о фильме
Название: Слуга народа
Год выхода: 2015
Жанр: Политическая комедия
Режиссер: Алексей Кирющенко
В ролях: Владимир Зеленский, Анна Кошмал, Наталия Сумская, Виктор Сарайкин, Екатерина Кистень, Станислав Боклан, Евгений Кошевой, Александр Пикалов, Юрий Крапов, Елена Кравец
О фильме:
Что будет, если президентом станет обычный человек из народа? Новый, честный, принципиальный и, самое главное, – умный человек.
Именно эти мысли однажды сподвигли народ избрать президентом простого учителя истории Василия Голобородько... Неожиданно для всех страна получила гаранта, который живет в обычной квартире. Который спокойно идет по улице без армии охранников и запросто ездит на маршрутке, который получает скромную зарплату и иногда занимает у друга "до зарплаты". В общем, который живет – как все. Ведь он точно знает - когда "царь" начнет жить как простой учитель, вскоре простой учитель заживет как царь!
И пускай у него нет серебряных пуль и осинового кола, каждое утро Василий Петрович выходит на борьбу с "нечистой силой" и без устали "воюет" с армадой коррумпированных и насквозь прогнивших чинуш, разгребает "авгиевы конюшни" государства.
Правда, он не учел одного. Система, где все привыкли безбожно воровать, откатывать и дерибанить – будет против такой заботы о народе.
Политическая комедия "Слуга народа" от режиссера Алексея Кирющенко в скором времени найдет своих поклонников, которые отдают предпочтение сериалам со смыслом.
Главный герой сериала обычный учитель истории Василий Голобородько. Василий своим образом жизни мало отличается от других тружеников - он также тянет лямку от зарплаты до зарплаты, каждое утро отправляется на работу в общественном многолюдном транспорте и радуется маленьким радостям жизни. Но однажды все изменилось. Василий Голобородько каким-то чудом стал президентом Украины. После этого жизнь совершенно изменилась, не только нашего главного героя, но и у населения страны. Ведь Василий ярый противник коррупции и первое что он сделал на президентском посту стал активно бороться со взяточничеством во всех отраслях экономики, политики и науки тоже, ничего удивительного. Клещ коррупции в нашем мире осел везде и всюду где можно присосаться к деньгам.
Чем закончатся благие намерения бывшего учителя, ныне Президента узнаете посмотрев великолепный сериал "Слуга народа" на нашем сайте.
Страна: Украина
Студия: Студия Квартал-95
Продолжительность: ~ 00:24:00 серия
Перевод: Не требуется[Русский]
Файл
Кодек: XviD
Качество: WEB-DLRip
Видео: ~ 950 Кбит/с, 688x384
Звук: MP3, 2 ch, 128 Кбит/с
Общее
Полное имя : Sluga.Naroda.(24.serii.iz.24).2015.XviD.WEB-DLRip.by.GeneralFilm�1-02.Serii.avi
Формат : AVI
Формат/Информация : Audio Video Interleave
Размер файла : 372 Мбайт
Продолжительность : 43 м.
Общий поток : 1199 Кбит/сек
Программа кодирования : VirtualDubMod 1.5.10.3 | www.virtualdub-fr.org || (build 2550/release)
Библиотека кодирования : VirtualDubMod build 2550/release
Видео
Идентификатор : 0
Формат : MPEG-4 Visual
Профиль формата : Advanced Simple@L5
Параметр BVOP формата : 1
Параметр QPel формата : Нет
Параметр GMC формата : Без точки перехода
Параметр матрицы формата : Выборочная
Идентификатор кодека : XVID
Идентификатор кодека/Подсказка : XviD
Продолжительность : 43 м.
Битрейт : 950 Кбит/сек
Ширина : 688 пикселей
Высота : 384 пикселя
Соотношение сторон : 16:9
Частота кадров : 25,000 кадров/сек
Цветовое пространство : YUV
Субдискретизация насыщенности : 4:2:0
Битовая глубина : 8 бит
Тип развёртки : Прогрессивная
Метод сжатия : С потерями
Бит/(Пиксели*Кадры) : 0.161
Размер потока : 329 Мбайт (89%)
Библиотека кодирования : XviD 73
Аудио
Идентификатор : 1
Формат : MPEG Audio
Версия формата : Version 1
Профиль формата : Layer 3
Идентификатор кодека : 55
Идентификатор кодека/Подсказка : MP3
Продолжительность : 43 м.
Вид битрейта : Постоянный
Битрейт : 128 Кбит/сек
Каналы : 2 канала
Частота : 48,0 КГц
Метод сжатия : С потерями
Размер потока : 39,7 Мбайт (11%)
Выравнивание : Соединение по промежуткам
Продолжительность промежутка : 40 мс. (1,00 видеокадр)
Время предзагрузки промежутка : 504 мс.
Библиотека кодирования : LAME3.99r
Настройки программы : -m s -V 4 -q 0 -lowpass 17 -b 128





Релиз от:



   Похожие торренты   Торрент   Размер 
В этой теме нет новых непрочитанных сообщений. Слуга народа [01х01-20 из 24] (2015) WEB-DLRip от GeneralFilm

269 | 51

3.63 ГБ

В этой теме нет новых непрочитанных сообщений. Слуга народа [01х01-10 из 24] (2015) WEB-DLRip от GeneralFilm

52 | 19

1.82 ГБ

В этой теме нет новых непрочитанных сообщений. Слуга народа [01х01-19 из 24] (2015) WEB-DLRip от GeneralFilm

112 | 44

3.45 ГБ

В этой теме нет новых непрочитанных сообщений. Слуга народа [01х01-04 из 24] (2015) WEB-DLRip от GeneralFilm

216 | 3

743.91 МБ

В этой теме нет новых непрочитанных сообщений. Слуга народа [01х01-14 из 24] (2015) WEB-DLRip от GeneralFilm

19 | 13

2.54 ГБ

В этой теме нет новых непрочитанных сообщений. Слуга народа [01х01-16 из 24] (2015) WEB-DLRip от GeneralFilm

370 | 105

2.91 ГБ

В этой теме нет новых непрочитанных сообщений. Слуга народа [01х01-06 из 24] (2015) WEB-DLRip от GeneralFilm

101 | 7

1.09 ГБ




Вы не можете начинать темы
Вы не можете отвечать на сообщения
Вы не можете редактировать свои сообщения
Вы не можете удалять свои сообщения
Вы не можете добавлять вложения

Перейти:  
Для Мосгорсуда, Роскомнадзора и рекламодателей: mosgorsud-torrent[собачка]yandex.ru
 Вход
ppkBB3cker v.2 © 2008-2014 @ PPK
[ Time : 0.032s | 16 Queries | GZIP : Off ]

Торрент трекер RUTOR.IN, Не можете зайти на rutor.org? Какой новый адрес рутор? Какое зеркало рутор? Не работает rutor.org и зеркала? Тогда наш торрент специально для вас. Rutor.in неофициальное зеркало rutor. В случае если у Вас заблокирован rutor или вдруг Вы не можете на него зайти, то Вы без труда сможете скачать бесплатно и без рекламы последние новинки кино, игр, сериалов и прочего у нас, на Rutor.in. Не нужно использовать прокси, чтобы зайти на рутор, достаточно воспользоваться нашим ресурсом. Все новые фильмы, игры, сериалы, книги и музыка за 2013 и 2014 годы через торрент бесплатно. Скачивайте фильмы в хорошем качестве, игры для пк, xbox, playstation без регистрации. У нас вы найдете новые Зарубежные сериалы и Русские сериалы 2013, 2014, 2015 годов. Оставайтесь с нами, качайте любимые фильмы, игры, сериалы, книги и музыку.