img image001 image001 image001 image001 image001 image001 image001 image001 image001 image001 image001 image001 image001 image001 image001

Planets Sun Sun Sun
Статистика раздачи
Автор: Nickolas3434 | Размер: 4.35 ГБ | Добавлен: 17 дек 2015
Раздают: 911    Качают: 167
Скачать торрент
Скачать торрент
Описание торрента

СообщениеДобавлено: 17 дек 2015 


Информация о фильме
Название: Петля Нестерова
Год выхода: 2015
Жанр: Криминал, детектив
Режиссер: Илья Казанков
В ролях: Кирилл Запорожский, Карина Разумовская, Оксана Акиньшина, Сергей Горобченко, Сергей Бурунов, Сергей Барковский, Василий Бочкарёв, Евгения Дмитриева, Дмитрий Шевченко, Ирина Пегова, Юрий Ицков, Оксана Базилевич, Валентин Смирнитский, Андрей Истоков, Елена Новикова (II)
О фильме:
В начале 1980-х годов в партийной элите СССР обострилась борьба за власть. Простые люди оказываются втянуты в беспощадный конфликт двух ведомств КГБ и МВД, за власть. Однажды вечером к участковому, старшему лейтенанту милиции Кириллу Нестерову, попадает трудный подросток с подозрительным свертком, в котором оказываются раритетные холсты русских художников. Кирилл и не догадывался, что этот эпизод станет только первой ступенькой в череде дальнейших событий, которые поставят под угрозу не только его взгляды на жизнь, но и саму жизнь!
Страна: Россия
Студия: Продюсерский Центр «Горад» и «Грин Филмс»
Продолжительность: 8 х ~ 00:54:00
Перевод: Не требуется
Файл
Качество: WEB-DLRip
Видео: XviD, ~ 1350 Кбит/с, 720x400
Звук: MP3, 2 ch, 128 Кбит/с
Общее
Полное имя : Petlja.Nesterova.2015.XviD.WEB-DRip.by.GeneralFilm�1.serija.avi
Формат : AVI
Формат/Информация : Audio Video Interleave
Размер файла : 556 Мбайт
Продолжительность : 53 м.
Общий поток : 1441 Кбит/сек
Программа кодирования : VirtualDubMod 1.5.10.3 | www.virtualdub-fr.org || (build 2550/release)
Библиотека кодирования : VirtualDubMod build 2550/release
Видео
Идентификатор : 0
Формат : MPEG-4 Visual
Профиль формата : Advanced Simple@L5
Параметр BVOP формата : 1
Параметр QPel формата : Нет
Параметр GMC формата : Без точки перехода
Параметр матрицы формата : Выборочная
Идентификатор кодека : XVID
Идентификатор кодека/Подсказка : XviD
Продолжительность : 53 м.
Битрейт : 1304 Кбит/сек
Ширина : 720 пикселей
Высота : 400 пикселей
Соотношение сторон : 16:9
Частота кадров : 25,000 кадров/сек
Цветовое пространство : YUV
Субдискретизация насыщенности : 4:2:0
Битовая глубина : 8 бит
Тип развёртки : Прогрессивная
Метод сжатия : С потерями
Бит/(Пиксели*Кадры) : 0.181
Размер потока : 503 Мбайт (90%)
Библиотека кодирования : XviD 73
Аудио
Идентификатор : 1
Формат : MPEG Audio
Версия формата : Version 1
Профиль формата : Layer 3
Идентификатор кодека : 55
Идентификатор кодека/Подсказка : MP3
Продолжительность : 53 м.
Вид битрейта : Постоянный
Битрейт : 128 Кбит/сек
Каналы : 2 канала
Частота : 48,0 КГц
Метод сжатия : С потерями
Размер потока : 49,4 Мбайт (9%)
Выравнивание : Соединение по промежуткам
Продолжительность промежутка : 40 мс. (1,00 видеокадр)
Время предзагрузки промежутка : 504 мс.
Библиотека кодирования : LAME3.99r
Настройки программы : -m s -V 4 -q 0 -lowpass 17 -b 128










Релиз от:



   Похожие торренты   Торрент   Размер 
В этой теме нет новых непрочитанных сообщений. Петля Нестерова [01-04 из 08] (2015) WEB-DLRip от GeneralFilm

18 | 3

2.17 ГБ

В этой теме нет новых непрочитанных сообщений. Петля Нестерова [01-02 из 08] (2015) HDTVRip от GeneralFilm

110 | 36

2.89 ГБ

В этой теме нет новых непрочитанных сообщений. Петля Нестерова [01 из 08] (2015) HDTVRip 720p от GeneralFilm

94 | 142

8.55 ГБ

В этой теме нет новых непрочитанных сообщений. Петля Нестерова [01-02 из 08] (2015) HDTV 1080i от GeneralFilm

116 | 74

12.84 ГБ

В этой теме нет новых непрочитанных сообщений. Петля Нестерова [01 из 08] (2015) WEB-DLRip | КПК

107 | 7

246.15 МБ

В этой теме нет новых непрочитанных сообщений. Петля Нестерова [01-08 из 08] (2015) WEB-DLRip | КПК

511 | 115

1.81 ГБ

В этой теме нет новых непрочитанных сообщений. Петля Нестерова [01-04 из 08] (2015) WEB-DLRip от ExKinoRay

6622 | 1630

5.46 ГБ




Вы не можете начинать темы
Вы не можете отвечать на сообщения
Вы не можете редактировать свои сообщения
Вы не можете удалять свои сообщения
Вы не можете добавлять вложения

Перейти:  
Для Мосгорсуда, Роскомнадзора и рекламодателей: mosgorsud-torrent[собачка]yandex.ru
 Вход
ppkBB3cker v.2 © 2008-2014 @ PPK
[ Time : 0.030s | 17 Queries | GZIP : Off ]

Торрент трекер RUTOR.IN, Не можете зайти на rutor.org? Какой новый адрес рутор? Какое зеркало рутор? Не работает rutor.org и зеркала? Тогда наш торрент специально для вас. Rutor.in неофициальное зеркало rutor. В случае если у Вас заблокирован rutor или вдруг Вы не можете на него зайти, то Вы без труда сможете скачать бесплатно и без рекламы последние новинки кино, игр, сериалов и прочего у нас, на Rutor.in. Не нужно использовать прокси, чтобы зайти на рутор, достаточно воспользоваться нашим ресурсом. Все новые фильмы, игры, сериалы, книги и музыка за 2013 и 2014 годы через торрент бесплатно. Скачивайте фильмы в хорошем качестве, игры для пк, xbox, playstation без регистрации. У нас вы найдете новые Зарубежные сериалы и Русские сериалы 2013, 2014, 2015 годов. Оставайтесь с нами, качайте любимые фильмы, игры, сериалы, книги и музыку.
cron