img image001 image001 image001 image001 image001 image001 image001 image001 image001 image001 image001 image001 image001 image001 image001

Planets Sun Sun Sun
Статистика раздачи
Автор: Nickolas3434 | Размер: 4.35 ГБ | Добавлен: 24 дек 2015
Раздают: 1516    Качают: 193
Скачать торрент
Скачать торрент
Описание торрента

СообщениеДобавлено: 24 дек 2015 


Оригинальное название: Временно недоступен
Год выпуска: 2015
Жанр: Комедия
Выпущено: Россия, Magic Factory, Front Line Studio
Режиссер: Михаил Хлебородов
В ролях: Сергей Безруков, Дмитрий Дюжев, Вера Шпак, Екатерина Федулова, Валерия Ланская, Олег Тактаров, Ричард Бондарев, Дмитрий Хрусталёв, Георгий Мартиросян, Александр Тютин, Сергей Вершинин, Евгения Нохрина, Олег Чудницов, Елена Киркова, Александр Аноприков, Андрей Кивинов, Антон Ескин, Сергей Стёпин, Любовь Фирсова, Андрей Лебедев, Олег Макаров, Бесо Гатаев, Виктор Муравский, Игорь Маслов (II), Михаил Гудошников, Екатерина Захарова (II), Ирина Токмакова, Анна Перелешина, Сергей Астахов, Константин Мурзенко, Александр Баширов, Мария Романова
О фильме: Московский чиновник по правовым вопросам в районной администрации Вячеслав Золотов и следователь Следственного Комитета по Калининграду Антон Плетнев в один прекрасный день меняются местами, сами того не желая. Одному из них предстоит стать ревизором и провести проверку в провинциальном городе, второму, оставшемуся в больнице без документов, доказать, что он – это он. Вопрос в том, кто из них лучше справится со своей ролью, а главное, сумеют ли они оба вовремя и без потерь прекратить этот спектакль.
Качество: WEB-DLRip
Видео: XviD, ~ 1350 Кбит/с, 720x400
Аудио: AC3, 2 ch, 192 Кбит/с
Продолжительность: 8 x ~ 00:50:00
Общее
Полное имя : Vremenno.Nedostupen.2015.XviD.WEB-DLRip.by.GeneralFilm�1.seriya.avi
Формат : AVI
Формат/Информация : Audio Video Interleave
Размер файла : 556 Мбайт
Продолжительность : 50 м.
Общий поток : 1546 Кбит/сек
Программа кодирования : VirtualDubMod 1.5.10.3 | www.virtualdub-fr.org || (build 2550/release)
Библиотека кодирования : VirtualDubMod build 2550/release
Видео
Идентификатор : 0
Формат : MPEG-4 Visual
Профиль формата : Advanced Simple@L5
Параметр BVOP формата : 1
Параметр QPel формата : Нет
Параметр GMC формата : Без точки перехода
Параметр матрицы формата : Выборочная
Идентификатор кодека : XVID
Идентификатор кодека/Подсказка : XviD
Продолжительность : 50 м.
Битрейт : 1344 Кбит/сек
Ширина : 720 пикселей
Высота : 400 пикселей
Соотношение сторон : 16:9
Частота кадров : 25,000 кадров/сек
Цветовое пространство : YUV
Субдискретизация насыщенности : 4:2:0
Битовая глубина : 8 бит
Тип развёртки : Прогрессивная
Метод сжатия : С потерями
Бит/(Пиксели*Кадры) : 0.187
Размер потока : 483 Мбайт (87%)
Библиотека кодирования : XviD 73
Аудио
Идентификатор : 1
Формат : AC-3
Формат/Информация : Audio Coding 3
Расширение режима : CM (complete main)
Параметр Endianness формата : Big
Идентификатор кодека : 2000
Продолжительность : 50 м.
Вид битрейта : Постоянный
Битрейт : 192 Кбит/сек
Каналы : 2 канала
Расположение каналов : Front: L R
Частота : 48,0 КГц
Частота кадров : 31,250 кадров/сек (1536 spf)
Метод сжатия : С потерями
Размер потока : 69,0 Мбайт (12%)
Выравнивание : Разделение по промежуткам
Продолжительность промежутка : 40 мс. (1,00 видеокадр)
Время предзагрузки промежутка : 500 мс.





Релиз от:
Исходник 1080р:



   Похожие торренты   Торрент   Размер 
В этой теме нет новых непрочитанных сообщений. Временно недоступен [01-06 из 08] (2015) WEB-DLRip от GeneralFilm

18 | 4

3.26 ГБ

В этой теме нет новых непрочитанных сообщений. Временно недоступен [01-03 из 08] (2015) WEB-DLRip от GeneralFilm

7 | 4

1.63 ГБ

В этой теме нет новых непрочитанных сообщений. Временно недоступен [01 из 08] (2015) WEB-DLRip от GeneralFilm

6 | 0

555.95 МБ

В этой теме нет новых непрочитанных сообщений. Временно недоступен [01-02 из 08] (2015) HDTVRip от GeneralFilm

99 | 53

4.37 ГБ

В этой теме нет новых непрочитанных сообщений. Временно недоступен [01-02 из 08] (2015) HDTVRip от GeneralFilm

2479 | 1830

5.75 ГБ

В этой теме нет новых непрочитанных сообщений. Временно недоступен [01-02 из 08] (2015) HDTV 1080i от GeneralFilm

492 | 504

19.16 ГБ

В этой теме нет новых непрочитанных сообщений. Временно недоступен [01-02 из 08] (2015) HDTV 1080i от GeneralFilm

30 | 29

14.66 ГБ




Вы не можете начинать темы
Вы не можете отвечать на сообщения
Вы не можете редактировать свои сообщения
Вы не можете удалять свои сообщения
Вы не можете добавлять вложения

Перейти:  
Для Мосгорсуда, Роскомнадзора и рекламодателей: mosgorsud-torrent[собачка]yandex.ru
 Вход
ppkBB3cker v.2 © 2008-2014 @ PPK
[ Time : 0.072s | 15 Queries | GZIP : On ]

Торрент трекер RUTOR.IN, Не можете зайти на rutor.org? Какой новый адрес рутор? Какое зеркало рутор? Не работает rutor.org и зеркала? Тогда наш торрент специально для вас. Rutor.in неофициальное зеркало rutor. В случае если у Вас заблокирован rutor или вдруг Вы не можете на него зайти, то Вы без труда сможете скачать бесплатно и без рекламы последние новинки кино, игр, сериалов и прочего у нас, на Rutor.in. Не нужно использовать прокси, чтобы зайти на рутор, достаточно воспользоваться нашим ресурсом. Все новые фильмы, игры, сериалы, книги и музыка за 2013 и 2014 годы через торрент бесплатно. Скачивайте фильмы в хорошем качестве, игры для пк, xbox, playstation без регистрации. У нас вы найдете новые Зарубежные сериалы и Русские сериалы 2013, 2014, 2015 годов. Оставайтесь с нами, качайте любимые фильмы, игры, сериалы, книги и музыку.