img image001 image001 image001 image001 image001 image001 image001 image001 image001 image001 image001 image001 image001 image001 image001

Planets Sun Sun Sun
Статистика раздачи
Автор: Nickolas3434 | Размер: 2.69 ГБ | Добавлен: 28 дек 2015
Раздают: 1520    Качают: 163
Скачать торрент
Скачать торрент
Описание торрента

СообщениеДобавлено: 28 дек 2015 


Информация о фильме
Оригинальное название: Пятый этаж без лифта
Год выпуска: 2015
Жанр: Мелодрама
Режиссер: Сергей Краснов
В ролях: Марина Коняшкина, Алексей Демидов, Иван Колесников, Любава Грешнова, Юлия Юрченко, Игорь Теплов, Галина Петрова, Татьяна Догилева, Игорь Скрипко, Виктор Цекало, Александр Хващинский, Виталия Корниенко
О фильме: Антон и Сима, в прошлом выпускники театрального, а ныне – успешные риэлторы. Они живут в гражданском браке, но юношескую любовь давно вытеснила привычка.Однажды в агентство обращается необычный клиент. Борис приехал из Лондона и намерен купить жильё в Москве – скромную квартиру в старой пятиэтажке. Выбор его не случаен: это место, где мужчина провёл своё счастливое детство. Как назло, владельцы наотрез отказываются продавать квартиру. Тогда предприимчивая Сима предлагает хитрый план, чтобы заставить хозяев съехать..
Выпущено: Россия, Русское
Продолжительность: 2 x ~ 01:30:00
Перевод: Не требуется
Файл
Качество: HDTVRip
Видео: 720x400 (1.80:1), 25 fps, XviD build 73 ~1 964 Kbps avg, 0.22 bit/pixel
Аудио: 48 kHz, AC3 Dolby Digital, 2/0 (L,R) ch, ~192.00 kbps avg
General
Complete name : Y:раздачиПятый этаж без лифта.2015.HDTVRip.RG.Russkie.serialy.&.Files-x\01.Пятый этаж без лифта.2015.HDTVRip.RG.Russkie.serialy.&.Files-x.avi
Format : AVI
Format/Info : Audio Video Interleave
File size : 1.37 GiB
Duration : 1h 30mn
Overall bit rate : 2 166 Kbps
Writing application : VirtualDubMod 1.5.10.3 | www.virtualdub-fr.org || (build 2550/release)
Writing library : VirtualDubMod build 2550/release
Video
ID : 0
Format : MPEG-4 Visual
Format profile : Advanced Simple@L5
Format settings, BVOP : 1
Format settings, QPel : No
Format settings, GMC : No warppoints
Format settings, Matrix : Custom
Codec ID : XVID
Codec ID/Hint : XviD
Duration : 1h 30mn
Bit rate : 1 964 Kbps
Width : 720 pixels
Height : 400 pixels
Display aspect ratio : 16:9
Frame rate : 25.000 fps
Color space : YUV
Chroma subsampling : 4:2:0
Bit depth : 8 bits
Scan type : Progressive
Compression mode : Lossy
Bits/(Pixel*Frame) : 0.273
Stream size : 1.24 GiB (91%)
Writing library : XviD 73
Audio
ID : 1
Format : AC-3
Format/Info : Audio Coding 3
Mode extension : CM (complete main)
Format settings, Endianness : Big
Codec ID : 2000
Duration : 1h 30mn
Bit rate mode : Constant
Bit rate : 192 Kbps
Channel(s) : 2 channels
Channel positions : Front: L R
Sampling rate : 48.0 KHz
Compression mode : Lossy
Stream size : 124 MiB (9%)
Alignment : Split accross interleaves
Interleave, duration : 40 ms (1.00 video frame)
Interleave, preload duration : 500 ms



Релиз от:



   Похожие торренты   Торрент   Размер 
В этой теме нет новых непрочитанных сообщений. Пятый этаж без лифта [01-02 из 02] (2015) HDTVRip-AVC от Files-x

399 | 50

2.72 ГБ

В этой теме нет новых непрочитанных сообщений. Пятый этаж без лифта [01-04 из 04] (2015) WEB-DLRip-AVC от Files-x

83 | 29

2.24 ГБ

В этой теме нет новых непрочитанных сообщений. Пятый этаж без лифта [01-02 из 02] (2015) HDTVRip от MediaClub | КПК

271 | 29

810.33 МБ

В этой теме нет новых непрочитанных сообщений. Пятый этаж без лифта [01-02 из 02] (2015) HDTVRip 720p от MediaClub

167 | 15

7.39 ГБ

В этой теме нет новых непрочитанных сообщений. Пятый этаж без лифта [01-04 из 04] (2015) WEB-DLRip

517 | 78

2.34 ГБ

В этой теме нет новых непрочитанных сообщений. Этаж [01-32 из 32] (2014) SATRip от Files-x & Generalfilm

293 | 117

9.41 ГБ

В этой теме нет новых непрочитанных сообщений. Пятый мушкетер, или тайна железной маски / Пятый мушкетер / The Fifth Musketeer (1979) DVDRip

30 | 8

1.96 ГБ




Вы не можете начинать темы
Вы не можете отвечать на сообщения
Вы не можете редактировать свои сообщения
Вы не можете удалять свои сообщения
Вы не можете добавлять вложения

Перейти:  
Для Мосгорсуда, Роскомнадзора и рекламодателей: mosgorsud-torrent[собачка]yandex.ru
 Вход
ppkBB3cker v.2 © 2008-2014 @ PPK
[ Time : 0.027s | 14 Queries | GZIP : Off ]

Торрент трекер RUTOR.IN, Не можете зайти на rutor.org? Какой новый адрес рутор? Какое зеркало рутор? Не работает rutor.org и зеркала? Тогда наш торрент специально для вас. Rutor.in неофициальное зеркало rutor. В случае если у Вас заблокирован rutor или вдруг Вы не можете на него зайти, то Вы без труда сможете скачать бесплатно и без рекламы последние новинки кино, игр, сериалов и прочего у нас, на Rutor.in. Не нужно использовать прокси, чтобы зайти на рутор, достаточно воспользоваться нашим ресурсом. Все новые фильмы, игры, сериалы, книги и музыка за 2013 и 2014 годы через торрент бесплатно. Скачивайте фильмы в хорошем качестве, игры для пк, xbox, playstation без регистрации. У нас вы найдете новые Зарубежные сериалы и Русские сериалы 2013, 2014, 2015 годов. Оставайтесь с нами, качайте любимые фильмы, игры, сериалы, книги и музыку.