img image001 image001 image001 image001 image001 image001 image001 image001 image001 image001 image001 image001 image001 image001 image001

Planets Sun Sun Sun
Статистика раздачи
Автор: Nickolas3434 | Размер: 3.8 ГБ | Добавлен: 28 дек 2015
Раздают: 1133    Качают: 150
Скачать торрент
Скачать торрент
Описание торрента

СообщениеДобавлено: 28 дек 2015 


Информация о фильме
Оригинальное название: Новогодний рейс
Год выпуска: 2014
Жанр: Мелодрама
Выпущено: Россия, Кинокомпания «Джи Пи»
Режиссер: Нана Джорджадзе
В ролях: Оксана Фандера, Светлана Ходченкова, Марат Башаров, Сергей Чонишвили, Дмитрий Миллер, Ирина Гринёва, Олег Долин, Мария Антонова, Илья Ермолов
О фильме: Перед новым годом нам часто кажется, что старая жизнь заканчивается и впереди – пустота. Вере - жене преуспевающего кинорежиссера Павловского, похоже, предстоит встречать новый год одной. Муж - на съемках (на самом деле - в объятиях юной старлетки Нади). Брат Никита, с которым Вера в юности выступала в составе рок-группы - в Питере. Сын Олег там же. Вера едет в Петербург, но, почувствовав, что никому особенно не нужна, - возвращается в Москву и по дороге в аэропорту случайно меняется сумками с архитектором Сергеем Степановым, прилетевшим встречать Новый год со своей невестой Ларисой. А журналистка Стефания, у которой некогда был роман с Павловским, вместо того, чтобы встречать Новый год со своим положительным женихом Петром и его родителями, неожиданно сбегает в Питер, поменявшись квартирами по программе коучсерфинга с юной библиотекаршей Броней - соседкой Никиты по коммуналке, безответно влюбленной в сына Веры Олега. Так насмешливая судьба завязывает в хитроумный узел судьбы нескольких людей. Найдут ли они свое счастье в этой новогодней неразберихе? ...
Файл
Качество: WEB-DLRip (AVC)
Видео: MPEG-4 AVC, ~ 2600 Кбит/с, 1022x576, 25 кадр/с
Аудио: AC3, 2 ch, 192 Кбит/с
Размер: 0.99 ГБ
Продолжительность: 1 x ~ 00:50:00
Язык: Русский
x264 [info]: frame I:632 Avg QP:14.41 size: 65949
x264 [info]: frame P:21032 Avg QP:17.18 size: 25362
x264 [info]: frame B:54366 Avg QP:19.13 size: 7534
x264 [info]: consecutive B-frames: 2.9% 6.1% 11.2% 63.0% 9.2% 6.9% 0.5% 0.1% 0.1% 0.0%
x264 [info]: mb I I16..4: 6.3% 55.9% 37.9%
x264 [info]: mb P I16..4: 2.4% 20.6% 5.2% P16..4: 25.6% 29.2% 9.5% 3.1% 0.3% skip: 4.1%
x264 [info]: mb B I16..4: 0.7% 3.3% 0.5% B16..8: 27.3% 21.2% 4.3% direct: 6.6% skip:36.1% L0:36.1% L1:45.3% BI:18.6%
x264 [info]: 8x8 transform intra:71.8% inter:48.2%
x264 [info]: direct mvs spatial:98.2% temporal:1.8%
x264 [info]: coded y,uvDC,uvAC intra: 74.3% 74.7% 55.4% inter: 19.8% 22.8% 10.0%
x264 [info]: i16 v,h,dc,p: 27% 25% 5% 44%
x264 [info]: i8 v,h,dc,ddl,ddr,vr,hd,vl,hu: 21% 14% 12% 6% 8% 10% 8% 10% 11%
x264 [info]: i4 v,h,dc,ddl,ddr,vr,hd,vl,hu: 30% 16% 12% 5% 8% 9% 7% 7% 7%
x264 [info]: i8c dc,h,v,p: 33% 28% 26% 13%
x264 [info]: Weighted P-Frames: Y:5.5% UV:3.2%
x264 [info]: ref P L0: 58.4% 10.9% 16.6% 4.3% 3.2% 2.0% 1.7% 0.9% 0.9% 0.8% 0.1% 0.0%
x264 [info]: ref B L0: 87.5% 7.6% 2.2% 1.0% 0.6% 0.5% 0.4% 0.2% 0.1%
x264 [info]: ref B L1: 96.4% 3.6%
x264 [info]: kb/s:2590.30

Общее
Уникальный идентификатор : 249235731348558466650699325437616629661 (0xBB810E4A521A6F4CB9835C8114B0A79D)
Полное имя : D:ЗагрузкиNovogodnij.Rejs.2014.WEB-DLRip.(AVC).ExKinoRayNovogodnij.Rejs.(E01).2014.x264.WEB-DLRip.(AVC).ExKinoRay.mkv
Формат : Matroska
Версия формата : Version 2
Размер файла : 1009 Мбайт
Продолжительность : 50 м.
Общий поток : 2784 Кбит/сек
Название фильма : Новогодний рейс.2014.(1-я серия).Rip by: ollan
Дата кодирования : UTC 2015-12-27 01:27:50
Программа кодирования : mkvmerge v5.6.0 ('Kenya Kane') built on May 27 2012 16:44:04
Библиотека кодирования : libebml v1.2.3 + libmatroska v1.3.0
Видео
Идентификатор : 1
Формат : AVC
Формат/Информация : Advanced Video Codec
Профиль формата : High@L4.1
Параметр CABAC формата : Да
Параметр ReFrames формата : 10 кадров
Идентификатор кодека : V_MPEG4/ISO/AVC
Продолжительность : 50 м.
Битрейт : 2592 Кбит/сек
Ширина : 1022 пикселя
Высота : 576 пикселей
Соотношение сторон : 16:9
Режим частоты кадров : Постоянный
Частота кадров : 25,000 кадров/сек
Цветовое пространство : YUV
Субдискретизация насыщенности : 4:2:0
Битовая глубина : 8 бит
Тип развёртки : Прогрессивная
Бит/(Пиксели*Кадры) : 0.176
Размер потока : 920 Мбайт (91%)
Библиотека кодирования : x264 core 125 r2200 999b753
Настройки программы : cabac=1 / ref=10 / deblock=1:-3:-3 / analyse=0x3:0x133 / me=umh / subme=11 / psy=1 / psy_rd=1.00:0.10 / mixed_ref=1 / me_range=48 / chroma_me=1 / trellis=2 / 8x8dct=1 / cqm=0 / deadzone=21,11 / fast_pskip=0 / chroma_qp_offset=-3 / threads=12 / lookahead_threads=2 / sliced_threads=0 / nr=0 / decimate=0 / interlaced=0 / bluray_compat=0 / constrained_intra=0 / bframes=9 / b_pyramid=2 / b_adapt=2 / b_bias=0 / direct=3 / weightb=1 / open_gop=0 / weightp=2 / keyint=250 / keyint_min=25 / scenecut=40 / intra_refresh=0 / rc=2pass / mbtree=0 / bitrate=2592 / ratetol=1.0 / qcomp=0.60 / qpmin=0 / qpmax=69 / qpstep=4 / cplxblur=20.0 / qblur=0.5 / ip_ratio=1.40 / pb_ratio=1.30 / aq=1:1.00
Язык : Russian
Default : Да
Forced : Нет
Аудио
Идентификатор : 2
Формат : AC-3
Формат/Информация : Audio Coding 3
Расширение режима : CM (complete main)
Параметр Endianness формата : Big
Идентификатор кодека : A_AC3
Продолжительность : 50 м.
Вид битрейта : Постоянный
Битрейт : 192 Кбит/сек
Каналы : 2 канала
Расположение каналов : Front: L R
Частота : 48,0 КГц
Битовая глубина : 16 бит
Метод сжатия : С потерями
Размер потока : 69,6 Мбайт (7%)
Язык : Russian
Default : Да
Forced : Нет





Релиз от: Rip by:



   Похожие торренты   Торрент   Размер 
В этой теме нет новых непрочитанных сообщений. Новогодний рейс [01-04 из 04] (2014) WEB-DLRip от ExKinoRay

3733 | 370

2.73 ГБ

В этой теме нет новых непрочитанных сообщений. Новогодний рейс [01-04 из 04] (2014) WEB-DL 720p от ExKinoRay

1228 | 131

4.25 ГБ

В этой теме нет новых непрочитанных сообщений. Новогодний рейс [01-04 из 04] (2014) WEB-DL 1080p от MediaClub

587 | 103

7.09 ГБ

В этой теме нет новых непрочитанных сообщений. Новогодний рейс [01-04 из 04] (2015) HDTVRip | КПК

207 | 23

914.31 МБ

В этой теме нет новых непрочитанных сообщений. Новогодний рейс [01-04 из 04] (2015) HDTVRip-AVC от Files-x

200 | 25

3.08 ГБ

В этой теме нет новых непрочитанных сообщений. Новогодний рейс [01-04 из 04] (2015) HDTVRip от GeneralFilm

924 | 147

2.82 ГБ

В этой теме нет новых непрочитанных сообщений. Новогодний рейс [01 из 04] (2015) HDTVRip-AVC от Files-x

21 | 3

787.07 МБ




Вы не можете начинать темы
Вы не можете отвечать на сообщения
Вы не можете редактировать свои сообщения
Вы не можете удалять свои сообщения
Вы не можете добавлять вложения

Перейти:  
Для Мосгорсуда, Роскомнадзора и рекламодателей: mosgorsud-torrent[собачка]yandex.ru
 Вход
ppkBB3cker v.2 © 2008-2014 @ PPK
[ Time : 0.033s | 16 Queries | GZIP : On ]

Торрент трекер RUTOR.IN, Не можете зайти на rutor.org? Какой новый адрес рутор? Какое зеркало рутор? Не работает rutor.org и зеркала? Тогда наш торрент специально для вас. Rutor.in неофициальное зеркало rutor. В случае если у Вас заблокирован rutor или вдруг Вы не можете на него зайти, то Вы без труда сможете скачать бесплатно и без рекламы последние новинки кино, игр, сериалов и прочего у нас, на Rutor.in. Не нужно использовать прокси, чтобы зайти на рутор, достаточно воспользоваться нашим ресурсом. Все новые фильмы, игры, сериалы, книги и музыка за 2013 и 2014 годы через торрент бесплатно. Скачивайте фильмы в хорошем качестве, игры для пк, xbox, playstation без регистрации. У нас вы найдете новые Зарубежные сериалы и Русские сериалы 2013, 2014, 2015 годов. Оставайтесь с нами, качайте любимые фильмы, игры, сериалы, книги и музыку.