img image001 image001 image001 image001 image001 image001 image001 image001 image001 image001 image001 image001 image001 image001 image001

Planets Sun Sun Sun
Статистика раздачи
Автор: PriZraK | Размер: 45.62 ГБ | Добавлен: 31 дек 2015
Раздают: 7    Качают: 7
Скачать торрент
Скачать торрент
Описание торрента

СообщениеДобавлено: 31 дек 2015 



H2O: Просто добавь воды (3 сезон) / H2O: Just add water (3 Season)


Информация о фильме
Название: H2O: Просто добавь воды
Оригинальное название: H2O: Just add water
Год выхода: 2009-2010
Жанр: Фэнтези, приключения, драма, семейный, молодежный
Режиссер: Джонатан М. Шифф
В ролях: Кариба Хейн, Фиби Тонкин, Энгус МакЛарен, Беджес Эбернети, Клео Мэсси, Бриттани Бернс, Индиана Эванс, Люк Митчел

О фильме:
Эмма вынуждена уехать из города, так как ее семья переезжает. Клео и Рикки опечалены, но они думают, что секретов больше не осталось, их тайна так и останется их секретом. Однако девушкам на острове Мако неожиданно начинает противостоять новая сила. И что удивительно, эта сила исходит из воды, которую, как они думали, русалки успешно контролировали. При этом парень по имени Вилл, увлекающийся подводным плаванием и дайвингом, путешествуя на родительской яхте, срывается со страховки и заплывает в пещеру острова Мако. Но тот ли это лунный пруд, хорошо известный нашим русалкам? Или это будет новая пещера, приготовившая нашим девченкам парочку неприятных сюрпризов?

Дополнительная информация:
Работа со звуком и видео - CergMark
Озвучка:
Русская - Дублированная телеканал Disney (Дисней).
Английская оригинальная - Более объёмное звучание. Лучше чем в DVDRip.



Страна: Австралия
Студия: Film Finance, Jonathan M. Shiff Productions
Продолжительность: 26 x ~ 00:24:30
Перевод: Дублированный

Файл
Формат: MKV
Кодек: h.264
Качество: WEB-DL 1080p
Видео: MPEG-4 AVC, ~ 10000 Кбит/с, 1920x1080
Звук:
Русский (AC3, 2 ch, 128 Кбит/с)
английский (AC3, 2 ch, 128 Кбит/с)
Субтитры: Нет

3 Сезон:
01. Пробуждение / The Awakening
02. Охота в джунглях / Jungle Hunt
03. Держи своих врагов близко / Keep Your Enemies Close
04. День Святого Валентина / Valentine's Day
05. Гениальные идеи / Big Ideas
06. Тайны и ложь / Secret and Lies
07. Счастливые семьи / Happy Families
08. Похищенная / Kidnapped
09. Ученик волшебника / The Sorcerer Apprentice
10. Разоблачённая / Revealed
11. Просто девушка в душе́ / Just a Girl at Heart
12. Преступление и наказание / Crime and Punishment
13. Иметь и сохранить / To Have and To Hold Back
14. Магия русалок / Mermaid Magic
15. Жёсткая игра / Power Play
16. Тёмная сторона / The Dark Side
17. Магнитная привлекательность / A Magnetic Attraction
18. В свете / Into the Light
19. Разрыв / Breakaway
20. Королева на день / Queen For A Day
21. Похититель сокровищ / The Jewel Thief
22. Владельцы Мако / Mako Masters
23. Пляжная вечеринка / Beach Party
24. Слишком близко для комфорта / Too Close for Comfort
25. Свидание с судьбой / A Date with Destiny
26. Выпускной / Graduation
General
Unique ID : 183764614798303841431307028561838584420 (0x8A3FC70609C02550B36391931845B264)
Complete name : C:H2O - Just Add Water_Season 3 1080p WEB-DLH2O - Just Add Water S03E02 Jungle Hunt 1080p WEB-DL.mkv
Format : Matroska
Format version : Version 4 / Version 2
File size : 1.72 GiB
Duration : 24mn 2s
Overall bit rate mode : Constant
Overall bit rate : 10.3 Mbps
Encoded date : UTC 2015-12-29 16:44:59
Writing application : mkvmerge v8.5.2 ('Crosses') 64bit
Writing library : libebml v1.3.3 + libmatroska v1.4.4
Attachements : Cover.jpg

Video
ID : 1
Format : AVC
Format/Info : Advanced Video Codec
Format profile : High@L4
Format settings, CABAC : Yes
Format settings, ReFrames : 4 frames
Codec ID : V_MPEG4/ISO/AVC
Duration : 24mn 2s
Bit rate mode : Constant
Bit rate : 10 000 Kbps
Width : 1 920 pixels
Height : 1 080 pixels
Display aspect ratio : 16:9
Frame rate mode : Constant
Frame rate : 25.000 fps
Standard : PAL
Color space : YUV
Chroma subsampling : 4:2:0
Bit depth : 8 bits
Scan type : Progressive
Bits/(Pixel*Frame) : 0.193
Stream size : 1.68 GiB (97%)
Language : English
Default : Yes
Forced : No
Color range : Limited
Color primaries : BT.709
Transfer characteristics : BT.709
Matrix coefficients : BT.709

Audio #1
ID : 2
Format : AC-3
Format/Info : Audio Coding 3
Mode extension : CM (complete main)
Format settings, Endianness : Big
Codec ID : A_AC3
Duration : 24mn 2s
Bit rate mode : Constant
Bit rate : 128 Kbps
Channel(s) : 2 channels
Channel positions : Front: L R
Sampling rate : 48.0 KHz
Frame rate : 31.250 fps (1536 spf)
Compression mode : Lossy
Stream size : 22.0 MiB (1%)
Title : DUB - Дублированный
Language : Russian
Default : Yes
Forced : No

Audio #2
ID : 3
Format : AC-3
Format/Info : Audio Coding 3
Mode extension : CM (complete main)
Format settings, Endianness : Big
Codec ID : A_AC3
Duration : 24mn 2s
Bit rate mode : Constant
Bit rate : 128 Kbps
Channel(s) : 2 channels
Channel positions : Front: L R
Sampling rate : 48.0 KHz
Frame rate : 31.250 fps (1536 spf)
Compression mode : Lossy
Stream size : 22.0 MiB (1%)
Language : English
Default : No
Forced : No




Релиз от: CergMark



   Похожие торренты   Торрент   Размер 
В этой теме нет новых непрочитанных сообщений. Просто добавь воды / Just Add Water (2008) BDRemux 1080p от MediaClub

20 | 13

17.45 ГБ

В этой теме нет новых непрочитанных сообщений. H2O: Просто добавь воды / H2O: Just add water [s01-03x01-78 из 78] (2006-2010) DVDRip | Jetix, Дисней

35 | 63

29.03 ГБ

В этой теме нет новых непрочитанных сообщений. Просто добавь воды / Just Add Water (2007) BDRip от Koenig | P

4 | 0

1.45 ГБ

В этой теме нет новых непрочитанных сообщений. Просто добавь воды / Just Add Water (2007) BDRip 720p от Koenig | P

5 | 1

4.37 ГБ

В этой теме нет новых непрочитанных сообщений. Капли воды / Water drops (2009) PSD

1 | 2

225.15 МБ

В этой теме нет новых непрочитанных сообщений. Воды слонам! / Water for Elephants (2011) Blu-Ray (1080p) - CHDBits

0 | 3

41.2 ГБ

В этой теме нет новых непрочитанных сообщений. Воды слонам! / Water for Elephants (2011) BDRip 1080p

95 | 4

4.37 ГБ




Вы не можете начинать темы
Вы не можете отвечать на сообщения
Вы не можете редактировать свои сообщения
Вы не можете удалять свои сообщения
Вы не можете добавлять вложения

Перейти:  
Для Мосгорсуда, Роскомнадзора и рекламодателей: mosgorsud-torrent[собачка]yandex.ru
 Вход
ppkBB3cker v.2 © 2008-2014 @ PPK
[ Time : 0.064s | 15 Queries | GZIP : Off ]

Торрент трекер RUTOR.IN, Не можете зайти на rutor.org? Какой новый адрес рутор? Какое зеркало рутор? Не работает rutor.org и зеркала? Тогда наш торрент специально для вас. Rutor.in неофициальное зеркало rutor. В случае если у Вас заблокирован rutor или вдруг Вы не можете на него зайти, то Вы без труда сможете скачать бесплатно и без рекламы последние новинки кино, игр, сериалов и прочего у нас, на Rutor.in. Не нужно использовать прокси, чтобы зайти на рутор, достаточно воспользоваться нашим ресурсом. Все новые фильмы, игры, сериалы, книги и музыка за 2013 и 2014 годы через торрент бесплатно. Скачивайте фильмы в хорошем качестве, игры для пк, xbox, playstation без регистрации. У нас вы найдете новые Зарубежные сериалы и Русские сериалы 2013, 2014, 2015 годов. Оставайтесь с нами, качайте любимые фильмы, игры, сериалы, книги и музыку.