img image001 image001 image001 image001 image001 image001 image001 image001 image001 image001 image001 image001 image001 image001 image001

Planets Sun Sun Sun
Статистика раздачи
Автор: Nickolas3434 | Размер: 532.01 МБ | Добавлен: 05 янв 2016
Раздают: 283    Качают: 10
Скачать торрент
Скачать торрент
Описание торрента

СообщениеДобавлено: 05 янв 2016 



Информация о фильме
Название: Симпсоны
Оригинальное название: The Simpsons
Год выхода: 2015
Жанр: Комедия, сатира
Режиссер: Мэтт Гроунинг
В ролях: Дэн Кастелланета, Джули Кавнер, Нэнси Картрайт, Ярдли Смит, Гарри Ширер, Хэнк Азария, Памела Хейден, Тресс МакНилл, Карл Видерготт, Мэгги Росвэлл и др.

О фильме:
Симпсоны живут в вымышленном городе Спрингфилд, со своим обществом и историей. Гомер - отец семейства, который дает плохие советы и работает инспектором безопасности на атомной электростанции; Мардж - любящая мать и жена, старается сохранить спокойствие в семье; Барт - 10 летний хулиган; Лиза - философский 8-летний ребенок; и Мэгги - младенец, который общается посредством соски.


Страна: США
Продолжительность: ~ 00:23:00 серия
Перевод: Любительский (многоголосый закадровый) | OMSKBIRD records

Файл
Кодек: MPEG-4 AVC/H.264
Качество: HDTV 720p
Видео: AVC, 1280x718 (16:9), 23.976 fps, ~ 2619 kbps
Звук:
Аудио rus: AC-3, 48 KHz, 6 ch, 384 kbps | OMSKBIRD records
Аудио eng: AC-3, 48 KHz, 6 ch, 448 kbps
Субтитры: Отсутствуют

Семпл

Релиз-группа:
Роли озвучивалиПавел Ярощик, Ольга Федорова, Полина Набиева, Алекс Дьяк и Егор Шилов
ПереводДмитрий Микушин
ЗвукорежиссерПавел Квентов
Монтаж, работа со звуком : Skyns61
Релиз подготовил: Skyns61

General
Unique ID : 184951635146727573639770799301667565590 (0x8B2463A52EEA3268A8E32F76EEBFB016)
Complete name : F:FilmsThe.Simpsons.S27E10.720p.HDTV.Rus.Eng.OmskBird.mkv
Format : Matroska
Format version : Version 4 / Version 2
File size : 532 MiB
Duration : 21mn 32s
Overall bit rate : 3 452 Kbps
Encoded date : UTC 2016-01-05 06:03:29
Writing application : mkvmerge v8.6.1 ('Flying') 64bit
Writing library : libebml v1.3.3 + libmatroska v1.4.4

Video
ID : 1
Format : AVC
Format/Info : Advanced Video Codec
Format profile : High@L4.1
Format settings, CABAC : Yes
Format settings, ReFrames : 5 frames
Codec ID : V_MPEG4/ISO/AVC
Duration : 21mn 32s
Bit rate : 2 619 Kbps
Width : 1 280 pixels
Height : 718 pixels
Display aspect ratio : 16:9
Frame rate mode : Constant
Frame rate : 23.976 (24000/1001) fps
Color space : YUV
Chroma subsampling : 4:2:0
Bit depth : 8 bits
Scan type : Progressive
Bits/(Pixel*Frame) : 0.119
Stream size : 403 MiB (76%)
Writing library : x264 core 148 r2638 7599210
Encoding settings : cabac=1 / ref=5 / deblock=1:0:0 / analyse=0x3:0x113 / me=umh / subme=8 / psy=1 / psy_rd=1.00:0.00 / mixed_ref=1 / me_range=16 / chroma_me=1 / trellis=1 / 8x8dct=1 / cqm=0 / deadzone=21,11 / fast_pskip=1 / chroma_qp_offset=-2 / threads=22 / lookahead_threads=3 / sliced_threads=0 / nr=0 / decimate=1 / interlaced=0 / bluray_compat=0 / constrained_intra=0 / bframes=3 / b_pyramid=2 / b_adapt=2 / b_bias=0 / direct=3 / weightb=1 / open_gop=0 / weightp=2 / keyint=250 / keyint_min=23 / scenecut=40 / intra_refresh=0 / rc_lookahead=50 / rc=crf / mbtree=1 / crf=18.0 / qcomp=0.60 / qpmin=0 / qpmax=69 / qpstep=4 / ip_ratio=1.40 / aq=1:1.00
Language : English
Default : Yes
Forced : No
Color range : Limited
Matrix coefficients : BT.709

Audio #1
ID : 2
Format : AC-3
Format/Info : Audio Coding 3
Mode extension : CM (complete main)
Format settings, Endianness : Big
Codec ID : A_AC3
Duration : 21mn 32s
Bit rate mode : Constant
Bit rate : 384 Kbps
Channel(s) : 6 channels
Channel positions : Front: L C R, Side: L R, LFE
Sampling rate : 48.0 KHz
Frame rate : 31.250 fps (1536 spf)
Compression mode : Lossy
Stream size : 59.2 MiB (11%)
Title : OmskBird 5.1
Language : Russian
Default : Yes
Forced : No

Audio #2
ID : 3
Format : AC-3
Format/Info : Audio Coding 3
Mode extension : CM (complete main)
Format settings, Endianness : Big
Codec ID : A_AC3
Duration : 21mn 32s
Bit rate mode : Constant
Bit rate : 448 Kbps
Channel(s) : 6 channels
Channel positions : Front: L C R, Side: L R, LFE
Sampling rate : 48.0 KHz
Frame rate : 31.250 fps (1536 spf)
Compression mode : Lossy
Stream size : 69.0 MiB (13%)
Title : original 5.1
Language : English
Default : No
Forced : No




Релиз от: skyns61



   Похожие торренты   Торрент   Размер 
В этой теме нет новых непрочитанных сообщений. Симпсоны / The Simpsons [27x11 из 22] (2015) HDTV 720p | OMSKBIRD records

83 | 7

508.91 МБ

В этой теме нет новых непрочитанных сообщений. Симпсоны / The Simpsons [27x01-10 из 22] (2015) WEB-DL 720p | OMSKBIRD records

58 | 54

7.46 ГБ

В этой теме нет новых непрочитанных сообщений. Симпсоны / The Simpsons [27x01-11 из 22] (2015) WEB-DL 720p | OMSKBIRD records

181 | 48

8.1 ГБ

В этой теме нет новых непрочитанных сообщений. Симпсоны / The Simpsons [27x01-05 из 22] (2015) WEB-DL 720p | OMSKBIRD records

83 | 126

4.44 ГБ

В этой теме нет новых непрочитанных сообщений. Симпсоны / The Simpsons [27x01-09 из 22] (2015) WEB-DL 720p | OMSKBIRD records

128 | 19

6.7 ГБ

В этой теме нет новых непрочитанных сообщений. Симпсоны / The Simpsons [27x01-05 из 22] (2015) WEB-DL 720p | OMSKBIRD records

85 | 60

3.7 ГБ

В этой теме нет новых непрочитанных сообщений. Симпсоны / The Simpsons [27x01-11 из 22] (2015) WEB-DLRip | OMSKBIRD records

81 | 103

4.28 ГБ




Вы не можете начинать темы
Вы не можете отвечать на сообщения
Вы не можете редактировать свои сообщения
Вы не можете удалять свои сообщения
Вы не можете добавлять вложения

Перейти:  
Для Мосгорсуда, Роскомнадзора и рекламодателей: mosgorsud-torrent[собачка]yandex.ru
 Вход
ppkBB3cker v.2 © 2008-2014 @ PPK
[ Time : 0.045s | 14 Queries | GZIP : Off ]

Торрент трекер RUTOR.IN, Не можете зайти на rutor.org? Какой новый адрес рутор? Какое зеркало рутор? Не работает rutor.org и зеркала? Тогда наш торрент специально для вас. Rutor.in неофициальное зеркало rutor. В случае если у Вас заблокирован rutor или вдруг Вы не можете на него зайти, то Вы без труда сможете скачать бесплатно и без рекламы последние новинки кино, игр, сериалов и прочего у нас, на Rutor.in. Не нужно использовать прокси, чтобы зайти на рутор, достаточно воспользоваться нашим ресурсом. Все новые фильмы, игры, сериалы, книги и музыка за 2013 и 2014 годы через торрент бесплатно. Скачивайте фильмы в хорошем качестве, игры для пк, xbox, playstation без регистрации. У нас вы найдете новые Зарубежные сериалы и Русские сериалы 2013, 2014, 2015 годов. Оставайтесь с нами, качайте любимые фильмы, игры, сериалы, книги и музыку.