img image001 image001 image001 image001 image001 image001 image001 image001 image001 image001 image001 image001 image001 image001 image001

Planets Sun Sun Sun
Статистика раздачи
Автор: PriZraK | Размер: 224.98 МБ | Добавлен: 09 янв 2016
Раздают: 32    Качают: 1
Скачать торрент
Скачать торрент
Описание торрента

СообщениеДобавлено: 09 янв 2016 

• Колония / Colony •

Страна: США
Производство: Legendary Television, Universal Cable Productions
Год выпуска: 2016
Жанр: фантастика
Режиссёр: Хуан Хосе Кампанелла
В ролях: Джош Холлоуэй, Сара Уэйн Кэллис, Питер Джекобсон, Аманда Ригетти, Алекс Нюстадтер, Изабелла Крамп, Гонсало Менендес, Брэндон Сайрус, Элли Уокер, Купер Дж. Фридман
Перевод: Профессиональный (многоголосый закадровый) от LostFilm
Описание: В ближайшем будущем семья пытается спасти жителей оккупированного Лос-Анджелеса. Бывший агент ФБР Уилл Боумэн и его супруга Кейти пробуют вернуть сына. Уилл готов работать на новое правительство, тогда как многие в городе поддерживают повстанцев. Лидер режима Прокси Снайдер предлагает Уиллу сделку, которая изменит их жизнь и заставит семью пойти на большой риск.

Качество: WEB-DLRip
Продолжительность: по ~ 00:43:00
Формат: MP4
Видео кодек: H.264 AVC
Аудио кодек: AAC-LC
Свойства видео: 640x360 (16:9), 23.976 fps, 500 kbps (0.091 bit/pixel)
Свойства аудио: 48.0 KHz, 2 ch, 128 kbps
General
Complete name : Colony.S01E01.WEB-DLRip.rus.LostFilm.mp4
Format : MPEG-4
Format profile : Base Media
Codec ID : isom (isom/avc1/iso6)
File size : 225 MiB
Duration : 49mn 47s
Overall bit rate mode : Variable
Overall bit rate : 632 Kbps
Encoded date : UTC 2016-01-09 09:26:42
Tagged date : UTC 2016-01-09 09:26:42
Video
ID : 1
Format : AVC
Format/Info : Advanced Video Codec
Format profile : High@L4.1
Format settings, CABAC : Yes
Format settings, ReFrames : 9 frames
Codec ID : avc1
Codec ID/Info : Advanced Video Coding
Duration : 49mn 47s
Bit rate : 500 Kbps
Maximum bit rate : 1 459 Kbps
Width : 640 pixels
Height : 360 pixels
Display aspect ratio : 16:9
Frame rate mode : Constant
Frame rate : 23.976 (24000/1001) fps
Color space : YUV
Chroma subsampling : 4:2:0
Bit depth : 8 bits
Scan type : Progressive
Bits/(Pixel*Frame) : 0.091
Stream size : 178 MiB (79%)
Title : 264@GPAC0.5.2-DEV-rev248-g39d5978-master
Writing library : x264 core 146 r2538 121396c
Encoding settings : cabac=1 / ref=9 / deblock=1:-3:-3 / analyse=0x3:0x113 / me=umh / subme=11 / psy=1 / psy_rd=1.00:0.00 / mixed_ref=1 / me_range=32 / chroma_me=1 / trellis=2 / 8x8dct=1 / cqm=0 / deadzone=21,11 / fast_pskip=0 / chroma_qp_offset=-2 / threads=6 / lookahead_threads=1 / sliced_threads=0 / nr=0 / decimate=0 / interlaced=0 / bluray_compat=0 / constrained_intra=0 / bframes=9 / b_pyramid=2 / b_adapt=2 / b_bias=0 / direct=3 / weightb=1 / open_gop=0 / weightp=2 / keyint=240 / keyint_min=23 / scenecut=40 / intra_refresh=0 / rc=2pass / mbtree=0 / bitrate=500 / ratetol=1.0 / qcomp=0.60 / qpmin=0 / qpmax=69 / qpstep=4 / cplxblur=20.0 / qblur=0.5 / ip_ratio=1.40 / pb_ratio=1.30 / aq=1:1.00
Encoded date : UTC 2016-01-09 09:26:42
Tagged date : UTC 2016-01-09 09:26:57
Audio
ID : 2
Format : AAC
Format/Info : Advanced Audio Codec
Format profile : LC
Codec ID : 40
Duration : 49mn 47s
Bit rate mode : Variable
Bit rate : 128 Kbps
Maximum bit rate : 151 Kbps
Channel(s) : 2 channels
Channel positions : Front: L R
Sampling rate : 48.0 KHz
Frame rate : 46.875 fps (1024 spf)
Compression mode : Lossy
Stream size : 45.5 MiB (20%)
Encoded date : UTC 2016-01-09 07:42:54
Tagged date : UTC 2016-01-09 09:26:57



   Похожие торренты   Торрент   Размер 
В этой теме нет новых непрочитанных сообщений. Колония / Colony [01х01 из 10] (2016) WEB-DLRip | LostFilm

219 | 25

665.5 МБ

В этой теме нет новых непрочитанных сообщений. Колония / Colony [01х01-09 из 10] (2016) WEBRip 1080p | LostFilm

139 | 365

16.72 ГБ

В этой теме нет новых непрочитанных сообщений. Колония / Colony [01х01-08 из 10] (2016) WEBRip 1080p | LostFilm

196 | 106

14.85 ГБ

В этой теме нет новых непрочитанных сообщений. Колония / Colony [01х01-06 из 10] (2016) WEBRip 1080p | LostFilm

105 | 59

11.26 ГБ

В этой теме нет новых непрочитанных сообщений. Колония / Colony [01х01-07 из 10] (2016) WEBRip 1080p | LostFilm

111 | 286

13.03 ГБ

В этой теме нет новых непрочитанных сообщений. Колония / Colony [01х01-05 из 10] (2016) WEBRip 1080p | LostFilm

200 | 482

9.18 ГБ

В этой теме нет новых непрочитанных сообщений. Колония / Colony [01х01-04 из 10] (2016) WEBRip 1080p | LostFilm

203 | 118

7.41 ГБ




Вы не можете начинать темы
Вы не можете отвечать на сообщения
Вы не можете редактировать свои сообщения
Вы не можете удалять свои сообщения
Вы не можете добавлять вложения

Перейти:  
Для Мосгорсуда, Роскомнадзора и рекламодателей: mosgorsud-torrent[собачка]yandex.ru
 Вход
ppkBB3cker v.2 © 2008-2014 @ PPK
[ Time : 0.059s | 15 Queries | GZIP : Off ]

Торрент трекер RUTOR.IN, Не можете зайти на rutor.org? Какой новый адрес рутор? Какое зеркало рутор? Не работает rutor.org и зеркала? Тогда наш торрент специально для вас. Rutor.in неофициальное зеркало rutor. В случае если у Вас заблокирован rutor или вдруг Вы не можете на него зайти, то Вы без труда сможете скачать бесплатно и без рекламы последние новинки кино, игр, сериалов и прочего у нас, на Rutor.in. Не нужно использовать прокси, чтобы зайти на рутор, достаточно воспользоваться нашим ресурсом. Все новые фильмы, игры, сериалы, книги и музыка за 2013 и 2014 годы через торрент бесплатно. Скачивайте фильмы в хорошем качестве, игры для пк, xbox, playstation без регистрации. У нас вы найдете новые Зарубежные сериалы и Русские сериалы 2013, 2014, 2015 годов. Оставайтесь с нами, качайте любимые фильмы, игры, сериалы, книги и музыку.