img image001 image001 image001 image001 image001 image001 image001 image001 image001 image001 image001 image001 image001 image001 image001

Planets Sun Sun Sun
Статистика раздачи
Автор: Nickolas3434 | Размер: 4.37 ГБ | Добавлен: 12 янв 2016
Раздают: 1695    Качают: 167
Скачать торрент
Скачать торрент
Описание торрента

СообщениеДобавлено: 12 янв 2016 

Шерлок: Безобразная невеста / Sherlock: The Abominable Bride

«Лучший сыщик 21-го века»

Русское название: Шерлок: Безобразная невеста
Оригинальное название: Sherlock: The Abominable Bride
Год выпуска: 2015
Жанр: триллер, драма, криминал, детектив
Выпущено: Великобритания, США
Режиссер: Дуглас Маккиннон
В ролях: Бенедикт Камбербэтч , Мартин Фриман , Уна Стаббс , Руперт Грейвз , Лу Брили , Марк Гейтисс , Эндрю Скотт , Джонатан Арис , Аманда Аббингтон , Винетт Робинсон , Таня Муди , Ясмин Акрам
Перевод: Дублированный (Первый канал)

Сюжет фильма:
«Безобразная невеста» — новая рождественская серия британского сериала «Шерлок Холмс». Это отдельный фильм, не связанный сюжетом ни с тремя первыми сезонами, ни с четвертым сезоном, съемки которого начнутся в 2016 году. Герои Бенедикта Камбербэтча и Мартина Фримана впервые перенесутся в Лондон конца XIX века, и зрители увидят «классических» Шерлока Холмса и доктора Ватсона. Холмсу предстоит весьма необычное расследование: к нему за помощью обращается некий Томас Риколетти, жена которого недавно покончила с собой. Холмсу и Ватсону нужно найти способ остановить ее призрак, который бродит по городу, мечтая о мести.

Качество: BDRip 720p
Формат: AVC (библиотека кодирования x.264)
Контейнер (Расширение): MKV
Видео: 1280x692, 5700 Кбит/сек, 24 кадр/сек, 0,268 Бит/[Пиксели*Кадры]
Аудио №1: русский / AC3 / 5.1 / 48 kHz / 384 kbps / |Дублированный, Первый канал|
Аудио №2: английский / AC3 / 5.1 / 48 kHz / 640 kbps /
Субтитры: русские
Навигация по главам(Чаптеры): есть
Продолжительность: 01:33:05
Автор рипа: Сообщество:


Format : Matroska
Format version : Version 2
File size : 4.37 GiB
Duration : 1h 33mn
Overall bit rate : 6 722 Kbps
Movie name : Sherlock: The Abominable Bride.(2015).BDRip.720p.[denis100]
Encoded date : UTC 2016-01-11 09:22:27
Writing application : mkvmerge v5.8.0 ('No Sleep / Pillow') built on Sep 2 2012 15:37:04
Writing library : libebml v1.2.3 + libmatroska v1.3.0

Video
ID : 1
Format : AVC
Format/Info : Advanced Video Codec
Format profile : High@L4.1
Format settings, CABAC : Yes
Format settings, ReFrames : 9 frames
Codec ID : V_MPEG4/ISO/AVC
Duration : 1h 33mn
Bit rate : 5 700 Kbps
Width : 1 280 pixels
Height : 692 pixels
Display aspect ratio : 1.850
Frame rate : 24.000 fps
Color space : YUV
Chroma subsampling : 4:2:0
Bit depth : 8 bits
Scan type : Progressive
Bits/(Pixel*Frame) : 0.268
Stream size : 3.62 GiB (83%)
Title : Sherlock: The Abominable Bride.(2015).BDRip.720p.[denis100]
Writing library : x264 core 148 r2638 7599210
Encoding settings : cabac=1 / ref=9 / deblock=1:-3:-3 / analyse=0x3:0x133 / me=umh / subme=11 / psy=1 / psy_rd=1.00:0.05 / mixed_ref=1 / me_range=32 / chroma_me=1 / trellis=2 / 8x8dct=1 / cqm=0 / deadzone=21,11 / fast_pskip=0 / chroma_qp_offset=-3 / threads=6 / lookahead_threads=1 / sliced_threads=0 / nr=0 / decimate=1 / interlaced=0 / bluray_compat=0 / constrained_intra=0 / bframes=10 / b_pyramid=2 / b_adapt=2 / b_bias=0 / direct=3 / weightb=1 / open_gop=0 / weightp=2 / keyint=250 / keyint_min=24 / scenecut=40 / intra_refresh=0 / rc=2pass / mbtree=0 / bitrate=5700 / ratetol=1.0 / qcomp=0.60 / qpmin=0 / qpmax=69 / qpstep=4 / cplxblur=20.0 / qblur=0.5 / ip_ratio=1.40 / pb_ratio=1.30 / aq=2:0.90
Language : English
Default : Yes
Forced : No

Audio #1
ID : 2
Format : AC-3
Format/Info : Audio Coding 3
Mode extension : CM (complete main)
Codec ID : A_AC3
Duration : 1h 33mn
Bit rate mode : Constant
Bit rate : 384 Kbps
Channel(s) : 6 channels
Channel positions : Front: L C R, Side: L R, LFE
Sampling rate : 48.0 KHz
Bit depth : 16 bits
Compression mode : Lossy
Stream size : 256 MiB (6%)
Title : DUB, Первый канал
Language : Russian
Default : Yes
Forced : No

Audio #2
ID : 3
Format : AC-3
Format/Info : Audio Coding 3
Mode extension : CM (complete main)
Codec ID : A_AC3
Duration : 1h 33mn
Bit rate mode : Constant
Bit rate : 640 Kbps
Channel(s) : 6 channels
Channel positions : Front: L C R, Side: L R, LFE
Sampling rate : 48.0 KHz
Bit depth : 16 bits
Compression mode : Lossy
Stream size : 426 MiB (10%)
Language : English
Default : No
Forced : No

Text
ID : 4
Format : UTF-8
Codec ID : S_TEXT/UTF8
Codec ID/Info : UTF-8 Plain Text
Language : Russian
Default : No
Forced : No

Menu
00:00:00.000 : en:Chapter 01
00:05:58.500 : en:Chapter 02
00:16:55.375 : en:Chapter 03
00:26:53.958 : en:Chapter 04
00:39:21.541 : en:Chapter 05
00:50:07.708 : en:Chapter 06
01:02:27.625 : en:Chapter 07
01:14:00.958 : en:Chapter 08
01:33:04.875 : en:Chapter 09
x264 [info]: frame I:1080 Avg QP:12.01 size:147508
x264 [info]: frame P:27733 Avg QP:14.26 size: 54260
x264 [info]: frame B:105230 Avg QP:16.39 size: 21977



   Похожие торренты   Торрент   Размер 
В этой теме нет новых непрочитанных сообщений. Шерлок: Безобразная невеста / Sherlock: The Abominable Bride (2015) BDRip 1080p | Первый канал

1846 | 255

9.11 ГБ

В этой теме нет новых непрочитанных сообщений. Шерлок: Безобразная невеста / Sherlock: The Abominable Bride (2015) WEBRip 720p от qqss44 | Первый канал

9015 | 20890

2.48 ГБ

В этой теме нет новых непрочитанных сообщений. Шерлок: Безобразная невеста / Sherlock: The Abominable Bride (2015) Blu-ray | Первый канал

68 | 29

25.72 ГБ

В этой теме нет новых непрочитанных сообщений. Шерлок: Безобразная невеста / Sherlock: The Abominable Bride (2015) SATRip | Первый канал

7062 | 69

1.2 ГБ

В этой теме нет новых непрочитанных сообщений. Шерлок: Безобразная невеста / Sherlock: The Abominable Bride (2015) HDTVRip | КПК | Первый канал

881 | 38

400.1 МБ

В этой теме нет новых непрочитанных сообщений. Шерлок : Безобразная невеста / Sherlock: The Abominable Bride (2015) HDTVRip-AVC | Первый канал

1404 | 26

1.37 ГБ

В этой теме нет новых непрочитанных сообщений. Шерлок: Безобразная невеста / Sherlock: The Abominable Bride (2015) HDTVRip-AVC от Scarabey | Первый канал

3321 | 205

1.69 ГБ




Вы не можете начинать темы
Вы не можете отвечать на сообщения
Вы не можете редактировать свои сообщения
Вы не можете удалять свои сообщения
Вы не можете добавлять вложения

Перейти:  
Для Мосгорсуда, Роскомнадзора и рекламодателей: mosgorsud-torrent[собачка]yandex.ru
 Вход
ppkBB3cker v.2 © 2008-2014 @ PPK
[ Time : 0.092s | 16 Queries | GZIP : Off ]

Торрент трекер RUTOR.IN, Не можете зайти на rutor.org? Какой новый адрес рутор? Какое зеркало рутор? Не работает rutor.org и зеркала? Тогда наш торрент специально для вас. Rutor.in неофициальное зеркало rutor. В случае если у Вас заблокирован rutor или вдруг Вы не можете на него зайти, то Вы без труда сможете скачать бесплатно и без рекламы последние новинки кино, игр, сериалов и прочего у нас, на Rutor.in. Не нужно использовать прокси, чтобы зайти на рутор, достаточно воспользоваться нашим ресурсом. Все новые фильмы, игры, сериалы, книги и музыка за 2013 и 2014 годы через торрент бесплатно. Скачивайте фильмы в хорошем качестве, игры для пк, xbox, playstation без регистрации. У нас вы найдете новые Зарубежные сериалы и Русские сериалы 2013, 2014, 2015 годов. Оставайтесь с нами, качайте любимые фильмы, игры, сериалы, книги и музыку.