img image001 image001 image001 image001 image001 image001 image001 image001 image001 image001 image001 image001 image001 image001 image001

Planets Sun Sun Sun
Статистика раздачи
Автор: Nickolas3434 | Размер: 6.06 ГБ | Добавлен: 13 янв 2016
Раздают: 41    Качают: 45
Скачать торрент
Скачать торрент
Описание торрента

СообщениеДобавлено: 13 янв 2016 



Информация о фильме
Название: Терминатор: Хроники Сары Коннор
Оригинальное название: Terminator: The Sarah Connor Chronicles
Год выхода: 2008
Жанр: Фантастика, боевик, триллер, драма
Режиссер: Чарльз Бисон, Джеффри Дж. Хант, Дэвид Наттер, Дж. Миллер Тобин, Брайан Спайсер
В ролях: Лина Хиди, Томас Деккер, Саммер Глау, Ричард Т. Джонс, Гаррет Диллахунт, Брайан Остин Грин, Ширли Мэнсон, Ливэн Рамбин, Маккензи Брук Смит

О фильме:
Хроники Сары Коннор - телесериал, являющийся ответвлением сюжетной линии кинотрилогии . В центре сюжета Сара Коннор и её сын Джон, время действия - после событий фильма . Герои вновь сталкиваются со злобным киборгом из будущего, который явился, чтобы убить Джона. Беглецов спасает терминатор Кэмерон (Саммер Глау), которая сообщает семейству Конноров, что Скайнет все-таки был изобретен и конец света состоится, хотя и сместится по времени в будущее на несколько лет вперед. Трое героев - Сара, Джон и Кэмерон пытаются вычислить создателя Скайнета и пресечь его разработки; параллельно за ними охотятся киборги, ФБР и полиция.



Терминатор: Хроники Сары Коннор (Терминатор: Битва за будущее) / Terminator: The Sarah Connor Chronicles

Сезон 1

1. Пилотная серия / Pilot
2. Гноти Сьютон / Gnothi Seauton
3. Турок / The Turk
4. Тяжелый металл / Heavy Metal
5. Королевский гамбит / Queen’s Gambit
6. Темницы и драконы / Dungeons & Dragons
7. Рука демона / The Demon Hand
8. Микросхема Вика / Vick’s Chip
9. Что он видел / What He Beheld

Сезон 2

01. Самсон и Делила / Samson and Delilah
02. Автоматика для людей / Automatic for the People
03. Мышеловка / The Mousetrap
04. Эллисон из Палмдейл / Allison from Palmdale
05. Прощайся с этим / Goodbye to All That
06. Башня высока, но падение короткое / The Tower Is Tall But the Fall Is Short
07. Братья Наблуса / Brothers of Nablus
08. Мистер Фергусон сегодня приболел / Mr. Ferguson is Ill Today
09. Осложнения / Complications
10. Странные вещи происходят в точке один два / Strange Things Happen at the One Two Point
11. Самодельный человек / Self Made Man
12. Алпайн Филдс / Alpine Fields
13. Приветствуем жителей Земли / Earthlings Welcome Here
14. Исцеляющая рана / The Good Wound
15. Песни Пустыни / Desert Cantos
16. Тот караулит — этот спит / Some Must Watch, While Some Must Sleep
17. Мы одни / Ourselves Alone
18. Особенный день, Часть 1 / Today is the Day, Part 1
19. Особенный день, Часть 2 / Today is the Day, Part 2
20. К Маяку / To the Lighthouse
21. Адам взрастил Каина / Adam Raised a Cain
22. Рождённый бежать / Born to Run

Страна: США
Студия: Bartleby Company, C-2 Pictures, Halcyon Company, The, Sarah Connor Pictures, Syfy, Warner Bros. Television, Almost Human Inc., Entity FX
Продолжительность: 31 x ~ 00:44:00
Перевод: Дублированный [Рен ТВ]

Файл
Формат: MP4
Качество: HDRip | КПК
Видео: MPEG-4 AVC (x264), 640x360, ~500 kbps, 23.976 fps
Аудио: AAC LC, 48.0 KHz, 2 ch, 128 Kbps
Субтитры: Нет

Семпл


omplete name : E:KinoTerminator.Hroniki.Sary.Konnor.AVC.HDRip.KPK.RENTV.GFTerminator.Hroniki.Sary.Konnor.S02.2009.AVC.HDRip.KPK.RENTV.GFTerminator.Hroniki.Sary.Konnor.s02e04.2009.AVC.HDRip.KPK.RENTV.GF.mp4
Format : MPEG-4
Codec ID : M4V
File size : 199 MiB
Duration : 43mn 56s
Overall bit rate mode : Variable
Overall bit rate : 634 Kbps
Writing application : Lavf53.19.0

Video
ID : 1
Format : AVC
Format/Info : Advanced Video Codec
Format profile : High@L4.1
Format settings, CABAC : Yes
Format settings, ReFrames : 8 frames
Codec ID : avc1
Codec ID/Info : Advanced Video Coding
Duration : 43mn 56s
Source duration : 15mn 18s
Bit rate : 500 Kbps
Width : 640 pixels
Height : 360 pixels
Display aspect ratio : 16:9
Frame rate mode : Constant
Frame rate : 23.976 fps
Color space : YUV
Chroma subsampling : 4:2:0
Bit depth : 8 bits
Scan type : Progressive
Bits/(Pixel*Frame) : 0.091
Stream size : 157 MiB (79%)
Source stream size : 157 MiB (79%)
Writing library : x264 core 130 r2273 b3065e6
Encoding settings : cabac=1 / ref=8 / deblock=1:-2:-2 / analyse=0x3:0x133 / me=umh / subme=10 / psy=1 / psy_rd=1.00:0.00 / mixed_ref=1 / me_range=24 / chroma_me=1 / trellis=2 / 8x8dct=1 / cqm=0 / deadzone=21,11 / fast_pskip=1 / chroma_qp_offset=-2 / threads=12 / lookahead_threads=2 / sliced_threads=0 / nr=0 / decimate=0 / interlaced=0 / bluray_compat=0 / constrained_intra=0 / bframes=8 / b_pyramid=2 / b_adapt=2 / b_bias=0 / direct=3 / weightb=1 / open_gop=0 / weightp=2 / keyint=240 / keyint_min=121 / scenecut=40 / intra_refresh=0 / rc_lookahead=40 / rc=2pass / mbtree=1 / bitrate=500 / ratetol=1.0 / qcomp=0.60 / qpmin=0 / qpmax=69 / qpstep=4 / cplxblur=20.0 / qblur=0.5 / ip_ratio=1.40 / aq=1:1.00
mdhd_Duration : 2636555

Audio
ID : 2
Format : AAC
Format/Info : Advanced Audio Codec
Format profile : LC
Codec ID : 40
Duration : 43mn 56s
Bit rate mode : Variable
Bit rate : 128 Kbps
Channel(s) : 2 channels
Channel positions : Front: L R
Sampling rate : 48.0 KHz
Compression mode : Lossy
Stream size : 40.2 MiB (20%)

Релиз от:



   Похожие торренты   Торрент   Размер 
В этой теме нет новых непрочитанных сообщений. Терминатор: Хроники Сары Коннор / Terminator: The Sarah Connor Chronicles [S01-02] (2008-2009) BDRip | Рен ТВ

173 | 57

14.71 ГБ

В этой теме нет новых непрочитанных сообщений. Терминатор: Хроники Сары Коннор / Terminator: The Sarah Connor Chronicles [S01-02] (2008-2009) HDTVRip от LostFilm

126 | 33

10.88 ГБ

В этой теме нет новых непрочитанных сообщений. Терминатор: Хроники Сары Коннор / Terminator: The Sarah Connor Chronicles [S02] (2008-2009) BDRip-AVC | REN-TV, LostFilm

25 | 36

22.21 ГБ

В этой теме нет новых непрочитанных сообщений. Терминатор: Хроники Сары Коннор / Terminator: The Sarah Connor Chronicles [S01] (2008) BDRip-AVC

128 | 31

7.35 ГБ

В этой теме нет новых непрочитанных сообщений. Терминатор: Хроники Сары Коннор [S01] / Terminator: The Sarah Connor Chronicles (2008) HDTVRip

6 | 21

4.36 ГБ

В этой теме нет новых непрочитанных сообщений. Терминатор: Хроники Сары Коннор / Terminator: The Sarah Connor Chronicles [S01] (2008) BDRip от HQ-ViDEO

58 | 54

7.2 ГБ

В этой теме нет новых непрочитанных сообщений. Терминатор: Хроники Сары Коннор / Terminator: The Sarah Connor Chronicles [S02] (2008) BDRip 720p | REN-TV

15 | 12

54.72 ГБ




Вы не можете начинать темы
Вы не можете отвечать на сообщения
Вы не можете редактировать свои сообщения
Вы не можете удалять свои сообщения
Вы не можете добавлять вложения

Перейти:  
Для Мосгорсуда, Роскомнадзора и рекламодателей: mosgorsud-torrent[собачка]yandex.ru
 Вход
ppkBB3cker v.2 © 2008-2014 @ PPK
[ Time : 0.021s | 13 Queries | GZIP : On ]
CGP output time : 0.012s | 7 Queries | GZIP : On

Торрент трекер RUTOR.IN, Не можете зайти на rutor.org? Какой новый адрес рутор? Какое зеркало рутор? Не работает rutor.org и зеркала? Тогда наш торрент специально для вас. Rutor.in неофициальное зеркало rutor. В случае если у Вас заблокирован rutor или вдруг Вы не можете на него зайти, то Вы без труда сможете скачать бесплатно и без рекламы последние новинки кино, игр, сериалов и прочего у нас, на Rutor.in. Не нужно использовать прокси, чтобы зайти на рутор, достаточно воспользоваться нашим ресурсом. Все новые фильмы, игры, сериалы, книги и музыка за 2013 и 2014 годы через торрент бесплатно. Скачивайте фильмы в хорошем качестве, игры для пк, xbox, playstation без регистрации. У нас вы найдете новые Зарубежные сериалы и Русские сериалы 2013, 2014, 2015 годов. Оставайтесь с нами, качайте любимые фильмы, игры, сериалы, книги и музыку.