img image001 image001 image001 image001 image001 image001 image001 image001 image001 image001 image001 image001 image001 image001 image001

Planets Sun Sun Sun
Статистика раздачи
Автор: Nickolas3434 | Размер: 187.13 МБ | Добавлен: 13 янв 2016
Раздают: 7    Качают: 2
Скачать торрент
Скачать торрент
Описание торрента

СообщениеДобавлено: 13 янв 2016 

• Хроники Шаннары / The Shannara Chronicles •

Страна: США
Производство: Farah Films, Music Television (MTV), Sonar Entertainment
Год выпуска: 2016
Жанр: фантастика, фэнтези, приключения
Режиссёр: Брэд Тернер, Джонатан Либесман, Джеймс Маршалл
В ролях: Остин Роберт Батлер, Поппи Дрейтон, Ивана Бакеро, Ману Беннетт, Аарон Якубенко, Эмилия Бёрнс, Джон Рис-Дэвис, Маркус Ванко, Брук Уильямс, Дэниэл МакФерсон и др.
Перевод: Профессиональный (многоголосый, закадровый от Lostfilm)
Описание: События сериала происходят в далёком будущем. Войны разделили Северную Америку на 4 части. На какой-то из них обитают эльфы, на иной — люди, на третьей — тролли и на четвёртой — дворфы. Основными персонажами сериала окажутся отпрыски древнего рода эльфов — Шаннара. Именно от них будет зависеть будущая судьба планеты…

Качество: WEB-DLRip
Продолжительность: по ~ 00:43:00
Формат: MP4
Видео кодек: H.264
Аудио кодек: AAC-LC
Свойства видео: 640x360 (16:9), 23.976 fps, 500 kbps (0.091 bit/pixel)
Свойства аудио: 48.0 KHz, 2 ch, 128 kbps
General
Complete name : The.Shannara.Chronicles.S01E01.WEB-DLRip.rus.LostFilm.mp4
Format : MPEG-4
Format profile : Base Media
Codec ID : isom (isom/avc1/iso6)
File size : 187 MiB
Duration : 41mn 25s
Overall bit rate mode : Variable
Overall bit rate : 632 Kbps
Encoded date : UTC 2016-01-12 14:17:29
Tagged date : UTC 2016-01-12 14:17:29
Video
ID : 1
Format : AVC
Format/Info : Advanced Video Codec
Format profile : High@L4.1
Format settings, CABAC : Yes
Format settings, ReFrames : 9 frames
Codec ID : avc1
Codec ID/Info : Advanced Video Coding
Duration : 41mn 24s
Bit rate : 500 Kbps
Maximum bit rate : 1 659 Kbps
Width : 640 pixels
Height : 360 pixels
Display aspect ratio : 16:9
Frame rate mode : Constant
Frame rate : 23.976 (24000/1001) fps
Color space : YUV
Chroma subsampling : 4:2:0
Bit depth : 8 bits
Scan type : Progressive
Bits/(Pixel*Frame) : 0.091
Stream size : 148 MiB (79%)
Title : 264@GPAC0.5.2-DEV-rev248-g39d5978-master
Writing library : x264 core 146 r2538 121396c
Encoding settings : cabac=1 / ref=9 / deblock=1:-3:-3 / analyse=0x3:0x113 / me=umh / subme=11 / psy=1 / psy_rd=1.00:0.00 / mixed_ref=1 / me_range=32 / chroma_me=1 / trellis=2 / 8x8dct=1 / cqm=0 / deadzone=21,11 / fast_pskip=0 / chroma_qp_offset=-2 / threads=6 / lookahead_threads=1 / sliced_threads=0 / nr=0 / decimate=0 / interlaced=0 / bluray_compat=0 / constrained_intra=0 / bframes=9 / b_pyramid=2 / b_adapt=2 / b_bias=0 / direct=3 / weightb=1 / open_gop=0 / weightp=2 / keyint=240 / keyint_min=23 / scenecut=40 / intra_refresh=0 / rc=2pass / mbtree=0 / bitrate=500 / ratetol=1.0 / qcomp=0.60 / qpmin=0 / qpmax=69 / qpstep=4 / cplxblur=20.0 / qblur=0.5 / ip_ratio=1.40 / pb_ratio=1.30 / aq=1:1.00
Encoded date : UTC 2016-01-12 14:17:29
Tagged date : UTC 2016-01-12 14:17:45
Audio
ID : 2
Format : AAC
Format/Info : Advanced Audio Codec
Format profile : LC
Codec ID : 40
Duration : 41mn 25s
Bit rate mode : Variable
Bit rate : 128 Kbps
Maximum bit rate : 150 Kbps
Channel(s) : 2 channels
Channel positions : Front: L R
Sampling rate : 48.0 KHz
Frame rate : 46.875 fps (1024 spf)
Compression mode : Lossy
Stream size : 37.9 MiB (20%)
Encoded date : UTC 2016-01-12 12:13:59
Tagged date : UTC 2016-01-12 14:17:45



   Похожие торренты   Торрент   Размер 
В этой теме нет новых непрочитанных сообщений. Хроники Шаннары / The Shannara Chronicles [01х01 из 10] (2016) WEB-DLRip | LostFilm

43 | 9

626.4 МБ

В этой теме нет новых непрочитанных сообщений. Хроники Шаннары / The Shannara Chronicles [01х01-02 из 10] (2016) WEB-DLRip | КПК | LostFilm

12 | 7

373.62 МБ

В этой теме нет новых непрочитанных сообщений. Хроники Шаннары / The Shannara Chronicles [01х01-02 из 10] (2016) WEB-DLRip | LostFilm

171 | 41

1.22 ГБ

В этой теме нет новых непрочитанных сообщений. Хроники Шаннары / The Shannara Chronicles [01х01 из 10] (2016) WEB-DLRip от qqss44 | LostFilm

160 | 14

530.64 МБ

В этой теме нет новых непрочитанных сообщений. Хроники Шаннары / The Shannara Chronicles [01х01-02 из 10] (2016) WEB-DLRip от qqss44 | LostFilm

98 | 18

1001.4 МБ

В этой теме нет новых непрочитанных сообщений. Хроники Шаннары / The Shannara Chronicles [01х01-02 из 10] (2016) WEB-DL 1080p от qqss44 | LostFilm

505 | 29

3.08 ГБ

В этой теме нет новых непрочитанных сообщений. Хроники Шаннары / The Shannara Chronicles [S01] (2016) WEB-DLRip | КПК | LostFilm

68 | 13

1.85 ГБ




Вы не можете начинать темы
Вы не можете отвечать на сообщения
Вы не можете редактировать свои сообщения
Вы не можете удалять свои сообщения
Вы не можете добавлять вложения

Перейти:  
Для Мосгорсуда, Роскомнадзора и рекламодателей: mosgorsud-torrent[собачка]yandex.ru
 Вход
ppkBB3cker v.2 © 2008-2014 @ PPK
[ Time : 0.043s | 16 Queries | GZIP : Off ]

Торрент трекер RUTOR.IN, Не можете зайти на rutor.org? Какой новый адрес рутор? Какое зеркало рутор? Не работает rutor.org и зеркала? Тогда наш торрент специально для вас. Rutor.in неофициальное зеркало rutor. В случае если у Вас заблокирован rutor или вдруг Вы не можете на него зайти, то Вы без труда сможете скачать бесплатно и без рекламы последние новинки кино, игр, сериалов и прочего у нас, на Rutor.in. Не нужно использовать прокси, чтобы зайти на рутор, достаточно воспользоваться нашим ресурсом. Все новые фильмы, игры, сериалы, книги и музыка за 2013 и 2014 годы через торрент бесплатно. Скачивайте фильмы в хорошем качестве, игры для пк, xbox, playstation без регистрации. У нас вы найдете новые Зарубежные сериалы и Русские сериалы 2013, 2014, 2015 годов. Оставайтесь с нами, качайте любимые фильмы, игры, сериалы, книги и музыку.