img image001 image001 image001 image001 image001 image001 image001 image001 image001 image001 image001 image001 image001 image001 image001

Planets Sun Sun Sun
Статистика раздачи
Автор: Nickolas3434 | Размер: 15.06 ГБ | Добавлен: 14 янв 2016
Раздают: 51    Качают: 116
Скачать торрент
Скачать торрент
Описание торрента

СообщениеДобавлено: 14 янв 2016 


Название: Правосудие
Оригинальное название: Justified
Год выхода: 2010
Жанр: Боевик, триллер, драма, криминал
Режиссер: Джон Дал, Джон Эвнет, Адам Аркин
В ролях: Тимоти Олифант, Уолтон Гоггинс, Натали Зиа, Ник Сирси, Джекоб Питтс, Джоэль Картер
О фильме:
Маршала Рэйлана Гивенса (Тимоти Олифант) переводят из Майами в родной городок Харлан, штат Кентукки (из-за привычки не разводить с преступниками долгие разговоры за жизнь, а стрелять их прямо на месте). Гивенс это захолустье терпеть не может, однако по приезду обнаруживает, что здесь тоже найдётся чем себя занять. Бывший лучший друг (Уолтон Гоггинс) стал по ту сторону закона, бандиты совершают налёты на банк прямо посреди бела дня, а местные любители кантри то и дело норовят достать из-под полы дробовик – в общем, будет весело.

Страна: США
Студия: FX Productions, Timberman-Beverly Productions, Nemo Films, Rooney McP Productions, Sony Pictures Television
Продолжительность: 78 x ~ 00:44:00
Перевод: Профессиональный (многоголосый, закадровый) [Fox Crime 1-3 Сезоны], [Jaskier 3-6 Сезоны]
Файл
Формат: MP4
Качество: HDRip, WEB-DLRip | КПК
Видео: MPEG-4 AVC (x264), 640x360, ~500 kbps, 23.976 fps
Аудио: AAC LC, 44.1 KHz, 2 ch, 128 Kbps
Субтитры: Нет
Семпл

Complete name : E:KinoPravosudie.AVC.KPK.GFPravosudie.S06.2015.AVC.WEB-DLRip.KPK.Jaskier.GFPravosudie.s06e11.2015.AVC.WEB-DLRip.KPK.Jaskier.GF.mp4
Format : MPEG-4
Codec ID : M4V
File size : 203 MiB
Duration : 44mn 46s
Overall bit rate mode : Variable
Overall bit rate : 633 Kbps
Writing application : Lavf53.19.0
Video
ID : 1
Format : AVC
Format/Info : Advanced Video Codec
Format profile : High@L4.1
Format settings, CABAC : Yes
Format settings, ReFrames : 8 frames
Codec ID : avc1
Codec ID/Info : Advanced Video Coding
Duration : 44mn 46s
Source duration : 16mn 8s
Bit rate : 500 Kbps
Width : 640 pixels
Height : 360 pixels
Display aspect ratio : 16:9
Frame rate mode : Constant
Frame rate : 23.976 fps
Color space : YUV
Chroma subsampling : 4:2:0
Bit depth : 8 bits
Scan type : Progressive
Bits/(Pixel*Frame) : 0.091
Stream size : 160 MiB (79%)
Source stream size : 160 MiB (79%)
Writing library : x264 core 130 r2273 b3065e6
Encoding settings : cabac=1 / ref=8 / deblock=1:-2:-2 / analyse=0x3:0x133 / me=umh / subme=10 / psy=1 / psy_rd=1.00:0.00 / mixed_ref=1 / me_range=24 / chroma_me=1 / trellis=2 / 8x8dct=1 / cqm=0 / deadzone=21,11 / fast_pskip=1 / chroma_qp_offset=-2 / threads=12 / lookahead_threads=2 / sliced_threads=0 / nr=0 / decimate=0 / interlaced=0 / bluray_compat=0 / constrained_intra=0 / bframes=8 / b_pyramid=2 / b_adapt=2 / b_bias=0 / direct=3 / weightb=1 / open_gop=0 / weightp=2 / keyint=240 / keyint_min=121 / scenecut=40 / intra_refresh=0 / rc_lookahead=40 / rc=2pass / mbtree=1 / bitrate=500 / ratetol=1.0 / qcomp=0.60 / qpmin=0 / qpmax=69 / qpstep=4 / cplxblur=20.0 / qblur=0.5 / ip_ratio=1.40 / aq=1:1.00
mdhd_Duration : 2686647
Audio
ID : 2
Format : AAC
Format/Info : Advanced Audio Codec
Format profile : LC
Codec ID : 40
Duration : 44mn 46s
Bit rate mode : Variable
Bit rate : 128 Kbps
Channel(s) : 2 channels
Channel positions : Front: L R
Sampling rate : 44.1 KHz
Compression mode : Lossy
Stream size : 40.9 MiB (20%)

Релиз от:



   Похожие торренты   Торрент   Размер 
В этой теме нет новых непрочитанных сообщений. Правосудие / Justified [S01-03] (2010-2012) WEB-DLRip | Fox Crime

3 | 8

20.41 ГБ

В этой теме нет новых непрочитанных сообщений. Правосудие / Своя правда / Justified [S01-S03] (2010-2012) BDRip-AVC,WEB-DLRip-AVC 720 р l Fox Crime

3 | 10

41.18 ГБ

В этой теме нет новых непрочитанных сообщений. Своя Правда / Правосудие / Justified [01-02x001-026 из 026] (2010-2011) WEB-DLRip-AVC, BDRip-AVC

0 | 2

20.48 ГБ

В этой теме нет новых непрочитанных сообщений. Правосудие / Justified [S03] (2012) WEB-DLRip | Fox Crime

4 | 2

6.35 ГБ

В этой теме нет новых непрочитанных сообщений. Правосудие / Своя Правда / Justified [S05] (2014) WEB-DLRip | Jaskier

61 | 36

6.99 ГБ

В этой теме нет новых непрочитанных сообщений. Правосудие / Своя Правда / Justified [05х01-04] (2014) WEB-DLRip | Jaskier

0 | 2

2.15 ГБ

В этой теме нет новых непрочитанных сообщений. Правосудие / Своя Правда / Justified [05х01-08 из 13] (2014) WEB-DLRip | Jaskier

37 | 132

4.3 ГБ




Вы не можете начинать темы
Вы не можете отвечать на сообщения
Вы не можете редактировать свои сообщения
Вы не можете удалять свои сообщения
Вы не можете добавлять вложения

Перейти:  
Для Мосгорсуда, Роскомнадзора и рекламодателей: mosgorsud-torrent[собачка]yandex.ru
 Вход
ppkBB3cker v.2 © 2008-2014 @ PPK
[ Time : 1.277s | 15 Queries | GZIP : Off ]

Торрент трекер RUTOR.IN, Не можете зайти на rutor.org? Какой новый адрес рутор? Какое зеркало рутор? Не работает rutor.org и зеркала? Тогда наш торрент специально для вас. Rutor.in неофициальное зеркало rutor. В случае если у Вас заблокирован rutor или вдруг Вы не можете на него зайти, то Вы без труда сможете скачать бесплатно и без рекламы последние новинки кино, игр, сериалов и прочего у нас, на Rutor.in. Не нужно использовать прокси, чтобы зайти на рутор, достаточно воспользоваться нашим ресурсом. Все новые фильмы, игры, сериалы, книги и музыка за 2013 и 2014 годы через торрент бесплатно. Скачивайте фильмы в хорошем качестве, игры для пк, xbox, playstation без регистрации. У нас вы найдете новые Зарубежные сериалы и Русские сериалы 2013, 2014, 2015 годов. Оставайтесь с нами, качайте любимые фильмы, игры, сериалы, книги и музыку.