img image001 image001 image001 image001 image001 image001 image001 image001 image001 image001 image001 image001 image001 image001 image001

Planets Sun Sun Sun
Статистика раздачи
Автор: Nickolas3434 | Размер: 8.68 ГБ | Добавлен: 16 янв 2016
Раздают: 1086    Качают: 474
Скачать торрент
Скачать торрент
Описание торрента

СообщениеДобавлено: 16 янв 2016 

Название: Профессионал
Год выпуска: 2014
Производство: Россия,Студия "Панорама", "Форвард-Фильм"
Жанр: Детектив, криминал
Продолжительность: 16 x ~ 00:47:00
Режиссёр: Алан Дзоциев
В ролях: Алексей Лобанов (II), Константин Стрельников, Игорь Лагутин, Евгения Игумнова, Сергей Юшкевич, Андрей Горбачёв, Юрий Батурин, Анатолий Лобоцкий, Мария Решавская, Владимир Артёмов, Валерий Баринов, Сергей Жигунов, Юрий Ицков, Михаил Черняк, Александр Марушев, Сергей Амосов, Руслан Барабанов, Анатолий Ильченко, Алексей Федотов, Руслан Кацагаджиев, Стэнли Красовицки, Владимир Бирюков, Александр Иванов (XVII), Роман Жилкин, Борис Хасанов, Александр Голубков (II)
Описание: Сбежав из тюрьмы в Джакарте, где он провёл в заключении долгих четырнадцать лет, разведчик Андрей Зубов возвращается на родину, чтобы найти причины провала своей опергруппы и наказать виновников гибели жены. Преодолев тысячи километров, Зубов вынужден столкнуться с новым предательством, он становится объектом преследования своих бывших коллег, среди которых многие заинтересованы в том, чтобы он замолчал и исчез навсегда. Но, благодаря помощи новых и старых друзей, ему всё-таки удаётся невозможное - настоящий профессионал в своём деле, Зубов вступает в борьбу с преступной системой и побеждает её. Но многие вопросы, мучающие Андрея, так и остаются без ответа...

Качество: WEBRip by (WEB-DL 720p)
Формат: AVI
Видео кодек: XviD
Аудио кодек: AC3
Видео: MPEG4, XviD, 720x400 (16:9), 25.000 fps, 1 483 Kbps (0.206 bit/pixel)
Аудио: AC-3, 48.0 KHz, 2 ch, 192 Kbps
Субтитры: Нет
Общее
Полное имя : D:Мои фильмыProfessional_01-16iz16_2014_XviD_WEBRipProfessional_01_2014_WEBRip.avi
Формат : AVI
Формат/Информация : Audio Video Interleave
Размер файла : 555 Мбайт
Продолжительность : 46 м.
Общий поток : 1685 Кбит/сек
Библиотека кодирования : VirtualDub build 35491/release
Видео
Идентификатор : 0
Формат : MPEG-4 Visual
Профиль формата : Advanced Simple@L5
Параметр BVOP формата : 2
Параметр QPel формата : Нет
Параметр GMC формата : Без точки перехода
Параметр матрицы формата : Default (H.263)
Идентификатор кодека : XVID
Идентификатор кодека/Подсказка : XviD
Продолжительность : 46 м.
Битрейт : 1483 Кбит/сек
Ширина : 720 пикселей
Высота : 400 пикселей
Соотношение сторон : 16:9
Частота кадров : 25,000 кадров/сек
Цветовое пространство : YUV
Субдискретизация насыщенности : 4:2:0
Битовая глубина : 8 бит
Тип развёртки : Прогрессивная
Метод сжатия : С потерями
Бит/(Пиксели*Кадры) : 0.206
Размер потока : 489 Мбайт (88%)
Библиотека кодирования : XviD 67
Аудио
Идентификатор : 1
Формат : AC-3
Формат/Информация : Audio Coding 3
Расширение режима : CM (complete main)
Параметр Endianness формата : Big
Идентификатор кодека : 2000
Продолжительность : 46 м.
Вид битрейта : Постоянный
Битрейт : 192 Кбит/сек
Каналы : 2 канала
Расположение каналов : Front: L R
Частота : 48,0 КГц
Частота кадров : 31,250 кадров/сек (1536 spf)
Метод сжатия : С потерями
Размер потока : 63,3 Мбайт (11%)
Выравнивание : Соединение по промежуткам
Продолжительность промежутка : 40 мс. (1,00 видеокадр)
Время предзагрузки промежутка : 512 мс.





   Похожие торренты   Торрент   Размер 
В этой теме нет новых непрочитанных сообщений. Профессионал [01-16 из 16] (2014) WEBRip | КПК

645 | 108

3.25 ГБ

В этой теме нет новых непрочитанных сообщений. Профессионал [01-10 из 16] (2014) HDTVRip от GeneralFilm

57 | 6

2.72 ГБ

В этой теме нет новых непрочитанных сообщений. Профессионал [01-04 из 16] (2014) HDTVRip от GeneralFilm

113 | 3

1.09 ГБ

В этой теме нет новых непрочитанных сообщений. Профессионал [01-06 из 16] (2014) HDTVRip от GeneralFilm

213 | 37

1.63 ГБ

В этой теме нет новых непрочитанных сообщений. Профессионал [01-08 из 16] (2014) HDTVRip от GeneralFilm

63 | 66

2.17 ГБ

В этой теме нет новых непрочитанных сообщений. Профессионал [01-05 из 16] (2014) WEB-DL 720p от Files-x

69 | 60

3.56 ГБ

В этой теме нет новых непрочитанных сообщений. Профессионал [01-10 из 16] (2014) WEB-DL 720p от Files-x

207 | 76

7.11 ГБ




Вы не можете начинать темы
Вы не можете отвечать на сообщения
Вы не можете редактировать свои сообщения
Вы не можете удалять свои сообщения
Вы не можете добавлять вложения

Перейти:  
Для Мосгорсуда, Роскомнадзора и рекламодателей: mosgorsud-torrent[собачка]yandex.ru
 Вход
ppkBB3cker v.2 © 2008-2014 @ PPK
[ Time : 0.054s | 15 Queries | GZIP : Off ]

Торрент трекер RUTOR.IN, Не можете зайти на rutor.org? Какой новый адрес рутор? Какое зеркало рутор? Не работает rutor.org и зеркала? Тогда наш торрент специально для вас. Rutor.in неофициальное зеркало rutor. В случае если у Вас заблокирован rutor или вдруг Вы не можете на него зайти, то Вы без труда сможете скачать бесплатно и без рекламы последние новинки кино, игр, сериалов и прочего у нас, на Rutor.in. Не нужно использовать прокси, чтобы зайти на рутор, достаточно воспользоваться нашим ресурсом. Все новые фильмы, игры, сериалы, книги и музыка за 2013 и 2014 годы через торрент бесплатно. Скачивайте фильмы в хорошем качестве, игры для пк, xbox, playstation без регистрации. У нас вы найдете новые Зарубежные сериалы и Русские сериалы 2013, 2014, 2015 годов. Оставайтесь с нами, качайте любимые фильмы, игры, сериалы, книги и музыку.