img image001 image001 image001 image001 image001 image001 image001 image001 image001 image001 image001 image001 image001 image001 image001

Planets Sun Sun Sun
Статистика раздачи
Автор: Nickolas3434 | Размер: 43 ГБ | Добавлен: 18 янв 2016
Раздают: 3    Качают: 23
Скачать торрент
Скачать торрент
Описание торрента

СообщениеДобавлено: 18 янв 2016 


Информация о фильме
Название: Дайте Санни шанс
Оригинальное название: Sonny With A Chance
Год выпуска: 2009-2011
Жанр: Комедия, мелодрама, семейный, детский
Режиссер: Эрик Дин Ситон, Дэвид Трейнер, Карл Лотен, Ли Шаллат Чемел
В ролях: Деми Ловато, Тиффани Торнтон, Стерлинг Найт, Брэндон Смит, Даг Брошу, Эллисин Эшли Арм, Майкл Кострофф, Эшли Джексон, Нэнси МакКеон, Викки Льюис, Дж. Хэннелиус, Джиллиан Мюррэй, Дэниэл Робак, Стив Хитнер, Марк Леар, Джон Понцио, Майкл Сэбалски, Девон Никсон, Мэрайя Гулсби
О фильме:
Познакомьтесь с Санни — обычной девочкой с необычным взглядом на жизнь. Она использует свой актерский талант и чувство юмора, чтобы выбираться из самых сложных жизненных ситуаций. Очень скоро ее замечают, и приглашают стать актрисой в очень популярное подростковое скетч-шоу «Как попало». Это очень злит давнюю участницу шоу Тони, которая работает в этой теле-программе с самого первого эфира. Она не понимает, зачем им нужна еще одна девочка. Санни — восторженная, взволнованная, счастливая и испуганная до смерти — должна выдержать все испытания, чтобы исполнить свою мечту и доказать себе и миру, что она готова к славе.
Дополнительная информация:
Работа со звуком - CergMark, CerGold
2 сезон 10 серия - В конце вставка с логотипом канала (Disney HD).
2 сезон 12 серии - На 00:25:03 - 00:25:43 - Отсутствовал перевод . Вставил одноголосный женский (читает робот-переводчик)
Роли дублировали:
Полина Константинова - Санни
Вероника Саркисова - Тони
Илья Хвостиков - Чед Дилан Купер
Дмитрий Курта - Нико
Диомид Виноградов - Грейди
Ольга Шорохова - Зора, Дакота, Люси
Борис Токарев - Мистер Кондор
Михаил Лукашов - Мёрфи
Наталья Грачева - Брэнда
Официальный сайт
Страна: США
Студия: Disney Channel, It's a Laugh Productions, Varsity Pictures
Продолжительность: 45 x ~ 00:23:30, 1 x 00:47:53
Перевод: Дублированный
Файл
Кодек: h.264
Качество: WEB-DL (1080p)
Видео: MPEG-4 AVC, ~ 5000 Кбит/с, 1920x1080, 23.976 fps
Звук:
Русский: 48 kHz, AC3, 2 ch, 192 Кбит/с
Английский: 48 kHz, AC3, 6 ch, 384 Кбит/с
Субтитры: Отсутствуют
1 сезон:
01. Sketchy Beginnings
02. West Coast Story
03. Sonny at the Falls
04. You've Got Fan Mail
05. Cheater Girls
06. Three's Not Company
07. Poll'd Apart
08. Fast Friends
09. Sonny with a Chance of Dating
10. Sonny and the Studio Brat
11. Promises, Prom-Misses
12. The Heartbreak Kid
13. Battle of the Networks' Stars
14. Prank'd
15. Tales from the Prop House
16. Sonny in the Kitchen with Dinner
18. Guess Who's Coming to Guest Star
18. Hart to Hart
19. Sonny in the Middle
20. Cookie Monsters
21. Sonny: So Far
2 сезон:
01. Walk a Mile in My Pants
02. Sonny Get Your Goat
03. Gassie Passes
04. Sonny with a Song
05. High School Miserable
06. The Legend of Candy Face
07. Gummy with a Chance
08. Random Acts of Disrespect
09. Grady with a Chance of Sonny
10. Falling for the Falls: Part 1
11. Falling for the Falls: Part 2
12. Sonny with a Secret (2 серии)
13. The Problem with Pauly
14. That's So Sonny
15. Chad without a Chance
16. My Two Chads
17. A So Random Halloween Special
18. Sonny with a 100 Percent Chance of Meddling
19. Dakota's Revenge
20. Sonny with a Kiss
21. A So Random Holiday Special
22. Sonny with a Grant
23. Marshall with a Chance
24. Sonny with a Choice
25. New Girl
General
Unique ID : 228967880196071984524732147251638592800 (0xAC419C13CEE3141C86FA6B2177E26520)
Complete name : D:DownloadsДайте Санни шанс (Sonny With a Chance) WEB-DL (1080p)2 SeasonSonny With a Chance S02E01 Walk a Mile In My Pants 1080p WEB-DL.mkv
Format : Matroska
Format version : Version 4 / Version 2
File size : 946 MiB
Duration : 22mn 37s
Overall bit rate : 5 845 Kbps
Encoded date : UTC 2016-01-17 09:01:00
Writing application : mkvmerge v8.8.0 ('Wind at my back') 64bit
Writing library : libebml v1.3.3 + libmatroska v1.4.4
Video
ID : 1
Format : AVC
Format/Info : Advanced Video Codec
Format profile : High@L4
Format settings, CABAC : Yes
Format settings, ReFrames : 4 frames
Codec ID : V_MPEG4/ISO/AVC
Duration : 22mn 37s
Bit rate : 5 266 Kbps
Width : 1 920 pixels
Height : 1 080 pixels
Display aspect ratio : 16:9
Frame rate mode : Constant
Frame rate : 23.976 (23976/1000) fps
Color space : YUV
Chroma subsampling : 4:2:0
Bit depth : 8 bits
Scan type : Progressive
Bits/(Pixel*Frame) : 0.106
Stream size : 852 MiB (90%)
Language : English
Default : Yes
Forced : No
Color range : Limited
Color primaries : BT.709
Transfer characteristics : BT.709
Matrix coefficients : BT.709
Audio #1
ID : 2
Format : AC-3
Format/Info : Audio Coding 3
Mode extension : CM (complete main)
Format settings, Endianness : Big
Codec ID : A_AC3
Duration : 22mn 37s
Bit rate mode : Constant
Bit rate : 192 Kbps
Channel(s) : 2 channels
Channel positions : Front: L R
Sampling rate : 48.0 KHz
Frame rate : 31.250 fps (1536 spf)
Compression mode : Lossy
Stream size : 31.1 MiB (3%)
Title : DUB - Дублированный (Дисней)
Language : Russian
Default : Yes
Forced : No
Audio #2
ID : 3
Format : AC-3
Format/Info : Audio Coding 3
Mode extension : CM (complete main)
Format settings, Endianness : Big
Codec ID : A_AC3
Duration : 22mn 37s
Bit rate mode : Constant
Bit rate : 384 Kbps
Channel(s) : 6 channels
Channel positions : Front: L C R, Side: L R, LFE
Sampling rate : 48.0 KHz
Frame rate : 31.250 fps (1536 spf)
Compression mode : Lossy
Stream size : 62.1 MiB (7%)
Language : English
Default : No
Forced : No




Релиз от: CergMark



   Похожие торренты   Торрент   Размер 
В этой теме нет новых непрочитанных сообщений. Дайте Санни шанс / Sonny With A Chance [S01-02] (2009-2011) WEB-DLRip | D | Disney

2 | 2

17.09 ГБ

В этой теме нет новых непрочитанных сообщений. Дайте Санни шанс / Sonny With A Chance [S02] (2010-2011) WEB-DLRip от RiperAM

1 | 28

7.48 ГБ

В этой теме нет новых непрочитанных сообщений. Дайте Санни шанс / Sonny With A Chance [S01] (2010-2011) SATRip от RiperAM

1 | 42

4.34 ГБ

В этой теме нет новых непрочитанных сообщений. Шанс на удачу / Luck By Chance (2009) DVDRip

4 | 4

1.62 ГБ

В этой теме нет новых непрочитанных сообщений. Шанс / Chance (2009) HDTVRip 720p от RG MixTorrent | P

2 | 0

2.14 ГБ

В этой теме нет новых непрочитанных сообщений. Шанс на удачу / Luck By Chance (2009) DVDRip от Pasha74

2 | 2

2.06 ГБ

В этой теме нет новых непрочитанных сообщений. Второй шанс / En chance til (2014) BDRip 1080p | L2

266 | 19

7.92 ГБ




Вы не можете начинать темы
Вы не можете отвечать на сообщения
Вы не можете редактировать свои сообщения
Вы не можете удалять свои сообщения
Вы не можете добавлять вложения

Перейти:  
Для Мосгорсуда, Роскомнадзора и рекламодателей: mosgorsud-torrent[собачка]yandex.ru
 Вход
ppkBB3cker v.2 © 2008-2014 @ PPK
[ Time : 0.046s | 15 Queries | GZIP : Off ]

Торрент трекер RUTOR.IN, Не можете зайти на rutor.org? Какой новый адрес рутор? Какое зеркало рутор? Не работает rutor.org и зеркала? Тогда наш торрент специально для вас. Rutor.in неофициальное зеркало rutor. В случае если у Вас заблокирован rutor или вдруг Вы не можете на него зайти, то Вы без труда сможете скачать бесплатно и без рекламы последние новинки кино, игр, сериалов и прочего у нас, на Rutor.in. Не нужно использовать прокси, чтобы зайти на рутор, достаточно воспользоваться нашим ресурсом. Все новые фильмы, игры, сериалы, книги и музыка за 2013 и 2014 годы через торрент бесплатно. Скачивайте фильмы в хорошем качестве, игры для пк, xbox, playstation без регистрации. У нас вы найдете новые Зарубежные сериалы и Русские сериалы 2013, 2014, 2015 годов. Оставайтесь с нами, качайте любимые фильмы, игры, сериалы, книги и музыку.