img image001 image001 image001 image001 image001 image001 image001 image001 image001 image001 image001 image001 image001 image001 image001

Planets Sun Sun Sun
Статистика раздачи
Автор: Nickolas3434 | Размер: 2.75 ГБ | Добавлен: 22 янв 2016
Раздают: 48    Качают: 18
Скачать торрент
Скачать торрент
Описание торрента

СообщениеДобавлено: 22 янв 2016 


Информация о фильме
Оригинальное название: Сын моего отца
Год выпуска: 2016
Жанр: Криминальный фильм, мелодрама
Режиссер: Станислав Дремов
В ролях: Владимир Жеребцов, Сергей Астахов, Евгения Осипова, Дарья Мингазетдинова, Тамара Акулова, Олег Леушин, Ксения Буравская, Александр Барановский, Кирилл Козаков, Олег Морозов, Оксана Семёнова, Иван Косичкин, Петр Черняев, Луиза Мосендз, Сергей Греков, Александр Пашутин, Татьяна Ташкова, Жанна Эппле, Михаил Слесарев
О фильме:
Эта история о предательстве и выборе, стоящем перед двумя братьями. Они оба талантливые нейрохирурги и оба могут возглавить клинику отца. Правда у них слишком разные взгляды на жизнь, а еще они влюблены в одну женщину. Глеб Романов (Владимир Жеребцов) - талантливый нейрохирург, работает в клинике в небольшом городе Озерске и готовится к свадьбе с любимой девушкой - певицей Ланой (Евгения Осипова). Но жизнь Глеба меняется навсегда, когда домой возвращается его брат Борис (Сергей Астахов). Когда-то Лана была влюблена в Бориса. Теперь он решает во чтобы то ни стало помешать их свадьбе.
Выпущено: Россия, Кинокомпания "Киноград 21"
Продолжительность: 8 х ~ 00:43:00
Перевод: Не требуется
Файл
Качество: HDTVRip
Видео: XviD, ~ 1000 Кбит/с, 656x368
Аудио: MP3, 2 ch, 128 Кбит/с
Полное имя : Meteorit.2015.XviD.HDTVRip.by.GeneralFilm�1.seriya.avi
Формат : AVI
Формат/Информация : Audio Video Interleave
Размер файла : 372 Мбайт
Продолжительность : 45 м.
Общий поток : 1145 Кбит/сек
Программа кодирования : VirtualDubMod 1.5.10.3 | www.virtualdub-fr.org || (build 2550/release)
Библиотека кодирования : VirtualDubMod build 2550/release
Видео
Идентификатор : 0
Формат : MPEG-4 Visual
Профиль формата : Advanced Simple@L5
Параметр BVOP формата : 1
Параметр QPel формата : Нет
Параметр GMC формата : Без точки перехода
Параметр матрицы формата : Выборочная
Идентификатор кодека : XVID
Идентификатор кодека/Подсказка : XviD
Продолжительность : 45 м.
Битрейт : 1000 Кбит/сек
Ширина : 656 пикселей
Высота : 368 пикселей
Соотношение сторон : 16:9
Частота кадров : 25,000 кадров/сек
Цветовое пространство : YUV
Субдискретизация насыщенности : 4:2:0
Битовая глубина : 8 бит
Тип развёртки : Прогрессивная
Метод сжатия : С потерями
Бит/(Пиксели*Кадры) : 0.167
Размер потока : 327 Мбайт (88%)
Библиотека кодирования : XviD 73
Аудио
Идентификатор : 1
Формат : MPEG Audio
Версия формата : Version 1
Профиль формата : Layer 3
Идентификатор кодека : 55
Идентификатор кодека/Подсказка : MP3
Продолжительность : 45 м.
Вид битрейта : Постоянный
Битрейт : 128 Кбит/сек
Каналы : 2 канала
Частота : 48,0 КГц
Метод сжатия : С потерями
Размер потока : 41,6 Мбайт (11%)
Выравнивание : Соединение по промежуткам
Продолжительность промежутка : 40 мс. (1,00 видеокадр)
Время предзагрузки промежутка : 504 мс.
Библиотека кодирования : LAME3.99r
Настройки программы : -m s -V 4 -q 0 -lowpass 17 -b 128







Релиз от:
Исходник 1080р:



   Похожие торренты   Торрент   Размер 
В этой теме нет новых непрочитанных сообщений. Сын моего отца [01-20 из 20] (2016) HDTVRip от GeneralFilm

870 | 628

6.55 ГБ

В этой теме нет новых непрочитанных сообщений. Сын моего отца [01-10 из 20] (2016) HDTVRip от GeneralFilm

457 | 114

3.41 ГБ

В этой теме нет новых непрочитанных сообщений. Сын моего отца [01-10 из 20] (2016) HDTVRip | КПК

240 | 196

1.98 ГБ

В этой теме нет новых непрочитанных сообщений. Сын моего отца [01-02 из 20] (2016) HDTVRip-AVC от Files-x

19 | 27

5.43 ГБ

В этой теме нет новых непрочитанных сообщений. Сын моего отца [01 из 20] (2016) HDTVRip от Files-x

188 | 97

4.32 ГБ

В этой теме нет новых непрочитанных сообщений. Сын моего отца [01-02 из 20] (2016) HDTVRip-AVC от Files-x

6 | 3

2.02 ГБ

В этой теме нет новых непрочитанных сообщений. Сын моего отца [01-02 из 20] (2016) HDTVRip-AVC от Files-x

47 | 0

1.34 ГБ




Вы не можете начинать темы
Вы не можете отвечать на сообщения
Вы не можете редактировать свои сообщения
Вы не можете удалять свои сообщения
Вы не можете добавлять вложения

Перейти:  
Для Мосгорсуда, Роскомнадзора и рекламодателей: mosgorsud-torrent[собачка]yandex.ru
 Вход
ppkBB3cker v.2 © 2008-2014 @ PPK
[ Time : 0.107s | 14 Queries | GZIP : On ]

Торрент трекер RUTOR.IN, Не можете зайти на rutor.org? Какой новый адрес рутор? Какое зеркало рутор? Не работает rutor.org и зеркала? Тогда наш торрент специально для вас. Rutor.in неофициальное зеркало rutor. В случае если у Вас заблокирован rutor или вдруг Вы не можете на него зайти, то Вы без труда сможете скачать бесплатно и без рекламы последние новинки кино, игр, сериалов и прочего у нас, на Rutor.in. Не нужно использовать прокси, чтобы зайти на рутор, достаточно воспользоваться нашим ресурсом. Все новые фильмы, игры, сериалы, книги и музыка за 2013 и 2014 годы через торрент бесплатно. Скачивайте фильмы в хорошем качестве, игры для пк, xbox, playstation без регистрации. У нас вы найдете новые Зарубежные сериалы и Русские сериалы 2013, 2014, 2015 годов. Оставайтесь с нами, качайте любимые фильмы, игры, сериалы, книги и музыку.