img image001 image001 image001 image001 image001 image001 image001 image001 image001 image001 image001 image001 image001 image001 image001

Planets Sun Sun Sun
Статистика раздачи
Автор: Nickolas3434 | Размер: 805.89 МБ | Добавлен: 25 янв 2016
Раздают: 370    Качают: 10
Скачать торрент
Скачать торрент
Описание торрента

СообщениеДобавлено: 25 янв 2016 


Информация о фильме
Название: Черные паруса
Оригинальное название: Black Sails
Год выпуска: 2016
Страна: США, ЮАР
Жанр: драма, приключения

Перевод: Профессиональный (многоголосый) AlexFilm
Продолжительность: 1 х ~ 00:59:58

Режиссер: Стив Бойум , Алик Сахаров , Лукас Эттлин
В ролях: Тоби Стивенс (Captain Flint), Ханна Нью (Eleanor Guthrie), Люк Арнольд (John Silver), Джессика Паркер Кеннеди (Max), Шон Майкл (Richard Guthrie), Зэк МакГоун (Captain Charles Vane), Клара Пэджет (Anne Bonny), Хаким Кае-Казим (Mr. Scott), Том Хоппер (Billy Bones), Марк Райан (Gates), Тоби Шмитц (Rackham), Уинстон Чонг (Joji)


Описание:
1715 год. Золотой век - вершина пиратства в Карибском море. Остров бывшей британской колонии Нью-Провиденс является территорией беззакония, контролируемый самыми известными пиратскими капитанами в истории. Самым грозным из них является капитан Флинт.
Но британский флот возвращается в эти воды, угрожая уничтожить Флинта и его команду. Движимый глубокими, сложными, даже романтическими мотивами, Флинт становится союзником с грозной Элеонорой Гатри, дочерью местного вора в законе, который превращает добычу пиратов в прибыль. Вместе они создают план, охотясь за высшей наградой, выиграв которую, они остановят захват своего дома и обеспечат их выживание.
Им противостоит ряд соперников: конкурент капитана, завидующий власти Флинта, отец Элеоноры, чьи амбиции на острове приводят к конфликту с дочерью, и молодой моряк, Джон Сильвер, недавно принятый в экипаж Флинта, которому каким-то образом удается постоянно срывать планы своего капитана.

Рейтинг:


Качество: HDTVRip-AVC
Формат: MKV
Видео: AVC, 1024x576 (16:9), 1457 kbps, 25 fps, 0,099 bpp
Аудио: русский / AC3 / 5.1 / 48 kHz / 384 kbps / 16 bit
Семпл


Релиз от: by White Smoke

General
Unique ID : 196942433210380045376054513987314302123 (0x9429BBA23865E817806C22C84A28BCAB)
Complete name : D:downloadBlack Sails S03 HDTVRip-AVC R.G.ResidentBlack.Sails.S03E01.2016.HDTVRip-AVC.by.White Smoke.R.G.Resident.mkv
Format : Matroska
Format version : Version 4 / Version 2
File size : 806 MiB
Duration : 59mn 58s
Overall bit rate : 1 879 Kbps
Movie name : Black Sails 3x01 @ AlexFilm
Encoded date : UTC 2016-01-25 04:55:42
Writing application : mkvmerge v6.8.0 ('Theme for Great Cities') 64bit built on Mar 2 2014 21:34:26
Writing library : libebml v1.3.0 + libmatroska v1.4.1
Video
ID : 1
Format : AVC
Format/Info : Advanced Video Codec
Format profile : High@L4.1
Format settings, CABAC : Yes
Format settings, ReFrames : 12 frames
Codec ID : V_MPEG4/ISO/AVC
Duration : 59mn 58s
Bit rate : 1 457 Kbps
Nominal bit rate : 1 557 Kbps
Width : 1 024 pixels
Height : 576 pixels
Display aspect ratio : 16:9
Frame rate : 25.000 fps
Color space : YUV
Chroma subsampling : 4:2:0
Bit depth : 8 bits
Scan type : Progressive
Bits/(Pixel*Frame) : 0.099
Stream size : 625 MiB (78%)
Writing library : x264 core 148 r2638 7599210
Encoding settings : cabac=1 / ref=12 / deblock=1:-3:-3 / analyse=0x3:0x113 / me=umh / subme=10 / psy=1 / psy_rd=1.00:0.00 / mixed_ref=1 / me_range=32 / chroma_me=1 / trellis=2 / 8x8dct=1 / cqm=0 / deadzone=21,11 / fast_pskip=1 / chroma_qp_offset=-2 / threads=6 / lookahead_threads=1 / sliced_threads=0 / nr=0 / decimate=1 / interlaced=0 / bluray_compat=0 / constrained_intra=0 / bframes=12 / b_pyramid=2 / b_adapt=2 / b_bias=10 / direct=1 / weightb=0 / open_gop=0 / weightp=2 / keyint=240 / keyint_min=25 / scenecut=40 / intra_refresh=0 / rc_lookahead=40 / rc=2pass / mbtree=1 / bitrate=1557 / ratetol=1.0 / qcomp=0.85 / qpmin=0 / qpmax=69 / qpstep=4 / cplxblur=20.0 / qblur=0.5 / ip_ratio=1.40 / aq=1:1.00
Language : English
Default : Yes
Forced : No
Audio
ID : 2
Format : AC-3
Format/Info : Audio Coding 3
Mode extension : CM (complete main)
Codec ID : A_AC3
Duration : 59mn 58s
Bit rate mode : Constant
Bit rate : 384 Kbps
Channel(s) : 6 channels
Channel positions : Front: L C R, Side: L R, LFE
Sampling rate : 48.0 KHz
Bit depth : 16 bits
Compression mode : Lossy
Stream size : 165 MiB (20%)
Title : DD5.1 AlexFilm
Language : Russian
Default : Yes
Forced : No


Внимание! Раздача ведётся путём добавления новых серий; при каждом добавлении создётся новый торрент. Чтобы начать докачку новой серии, пользователям необходимо сделать следующее:
1. Остановить скачивание,
2. Удалить старый торрент у себя из клиента (старые серии удалять не надо),
3. Скачать новый торрент и запустить его у себя в клиенте вместо старого, при этом указать клиенту путь в старую папку куда и должно происходить скачивание новых серий.
Ваш клиент при этом должен произвести хеширование (проверку) старой папки (если не производит сам - помогите ему сделать это), и будет докачивать только те серии которых у вас ещё нет. Старые серии при этом не удаляются, а продолжают раздаваться!
Eсли вы уже удалили старые серии, то предотвратить повторную закачку старых серий можно, отжав галочку в соответсвующих местах при запуске нового торрента. По возможности, желательно не удалять старые серии как можно дольше чтобы релизёр не столько продолжал раздавать старые серии, а смог сконцентрироваться на новых.



   Похожие торренты   Торрент   Размер 
В этой теме нет новых непрочитанных сообщений. Чёрные паруса / Black Sails [03х01 из 10] (2016) HDTVRip | AlexFilm

315 | 50

712.54 МБ

В этой теме нет новых непрочитанных сообщений. Черные паруса / Black Sails [03х01-04 из 10] (2016) HDTVRip-AVC | AlexFilm

82 | 84

3.12 ГБ

В этой теме нет новых непрочитанных сообщений. Черные паруса / Black Sails [03х01-02 из 10] (2016) HDTVRip-AVC | AlexFilm

9 | 18

1.56 ГБ

В этой теме нет новых непрочитанных сообщений. Чёрные паруса / Black Sails [03х01 из 10] (2016) HDTVRip 720p | AlexFilm

272 | 21

1.41 ГБ

В этой теме нет новых непрочитанных сообщений. Чёрные паруса / Black Sails [03х01 из 11] (2016) HDTVRip | BaibaKo

175 | 17

808.6 МБ

В этой теме нет новых непрочитанных сообщений. Чёрные паруса / Black Sails [03х01-06 из 10] (2016) HDTVRip | BaibaKo

682 | 1524

4.49 ГБ

В этой теме нет новых непрочитанных сообщений. Чёрные паруса / Black Sails [03х01 из 11] (2016) HDTVRip 720p | BaibaKo

909 | 28

1.42 ГБ




Вы не можете начинать темы
Вы не можете отвечать на сообщения
Вы не можете редактировать свои сообщения
Вы не можете удалять свои сообщения
Вы не можете добавлять вложения

Перейти:  
Для Мосгорсуда, Роскомнадзора и рекламодателей: mosgorsud-torrent[собачка]yandex.ru
 Вход
ppkBB3cker v.2 © 2008-2014 @ PPK
[ Time : 0.030s | 14 Queries | GZIP : Off ]

Торрент трекер RUTOR.IN, Не можете зайти на rutor.org? Какой новый адрес рутор? Какое зеркало рутор? Не работает rutor.org и зеркала? Тогда наш торрент специально для вас. Rutor.in неофициальное зеркало rutor. В случае если у Вас заблокирован rutor или вдруг Вы не можете на него зайти, то Вы без труда сможете скачать бесплатно и без рекламы последние новинки кино, игр, сериалов и прочего у нас, на Rutor.in. Не нужно использовать прокси, чтобы зайти на рутор, достаточно воспользоваться нашим ресурсом. Все новые фильмы, игры, сериалы, книги и музыка за 2013 и 2014 годы через торрент бесплатно. Скачивайте фильмы в хорошем качестве, игры для пк, xbox, playstation без регистрации. У нас вы найдете новые Зарубежные сериалы и Русские сериалы 2013, 2014, 2015 годов. Оставайтесь с нами, качайте любимые фильмы, игры, сериалы, книги и музыку.