img image001 image001 image001 image001 image001 image001 image001 image001 image001 image001 image001 image001 image001 image001 image001

Planets Sun Sun Sun
Статистика раздачи
Автор: Nickolas3434 | Размер: 726.57 МБ | Добавлен: 28 янв 2016
Раздают: 109    Качают: 7
Скачать торрент
Скачать торрент
Описание торрента

СообщениеДобавлено: 28 янв 2016 

Сотня, 3 сезон 1 серия из 16 / The 100 / The Hundred

«Будущее - это больше, чем просто выживание...»

Перевод: Профессиональный (многоголосый, закадровый) [LostFilm]
Cубтитры: отсутствуют
Формат: WEB-DLRip (AVC), MKV, H.264, AC3
Страна: США
Режиссер: Дин Уайт, П.Дж. Пеше, Майрзи Алмас
Жанр: фантастика, драма
Всего серий: 16
Продолжительность: ~ 00:43:00 серия
Год выпуска: 2016

В ролях: Элиза Тейлор, Мари Авгеропулос, Боб Морли, Томас МакДонелл, Линдси Морган, Пейдж Турко, Генри Йен Кьюсик, Исайя Вашингтон, Девон Бостик, Кристофер Ларкин, Сачин Сахель, Женевьев Бюкнер, Рики Уиттл, Ричард Хэрмон, Джарод Джозеф, Челси Рейст, Крис Браунинг, Джош Ссеттуба

Описание: После ста лет проведенных на орбите Земли после окончания ядерной войны, чтобы выяснить пригодна она для выживания или нет, руководство космической станции из-за ee перенаселения решает в качестве подопытных крыс отправить сотню малолетних подростков обратно на Землю.
Приземлившиеся 98 человек сразу делятся на две группировки - "умных и красивых" - пытающихся выжить и быдло. Первых меньшинство и они ломятся искать старый бункер с консервами, пока вторые радуются свежеприобретенной свободе на голодный желудок.
Земля оправилась от войны, но не полностью - по ней бродят звери-мутанты, в реках обитают опасные хищники, а в лесах - кое что пострашнее...


Рейтинг на:


Видео: 1024х576 (1.77:1), 23,976 fps, AVC (х264), , ~1951 Kbps avg, 0.138 bit/pixel
Аудио: 48.0 kHz, AC3 Dolby Digital, 6 channels (Front: L C R, Side: L R, LFE), ~384 kbps avg

Доп. информация: звук перевода и оригинальная дорожка Dolby Digital 5.1
Полноэкранное изображение (16:9) без "черных" полос. Рип с WEB-DL 1080р. Автор рипа: Д.И.С. Релиз группы:

Общее
Уникальный идентификатор : 25372331849010541142217754205720610176 (0x1316888AB83B3B928DF6ED58A3EB0580)
Полное имя : D:\Video\...\sotnya_s03e01_[tfile.me].mkv
Формат : Matroska
Версия формата : Version 2
Размер файла : 727 Мбайт
Продолжительность : 42 м.
Режим общего битрейта : Переменный
Общий поток : 2383 Кбит/сек
Дата кодирования : UTC 2016-01-23 18:59:55 / UTC 2016-01-23 18:59:55
Программа кодирования : Lavf54.63.104
Библиотека кодирования : Lavf54.63.104 / Lavf54.63.104

Видео
Идентификатор : 1
Формат : AVC
Формат/Информация : Advanced Video Codec
Профиль формата :
Параметр CABAC формата : Да
Параметр ReFrames формата : 1 кадр
Параметр GOP формата : M=1, N=15
Идентификатор кодека : V_MPEG4/ISO/AVC
Продолжительность : 42 м.
Вид битрейта : Переменный
Битрейт : 1951 Кбит/сек
Максимальный битрейт : 6000 Кбит/сек
Ширина : 1024 пикселя
Высота : 576 пикселей
Соотношение сторон : 16:9
Режим частоты кадров : Постоянный
Частота кадров : 23,976 (24000/1001) кадра/сек
Цветовое пространство : YUV
Субдискретизация насыщенности : 4:2:0
Битовая глубина : 8 бит
Тип развёртки : Прогрессивная
Бит/(Пиксели*Кадры) : 0.138
Размер потока : 595 Мбайт (82%)
Default : Да
Forced : Нет

Аудио
Идентификатор : 2
Формат : AC-3
Формат/Информация : Audio Coding 3
Расширение режима : CM (complete main)
Параметр Endianness формата : Big
Идентификатор кодека : A_AC3
Продолжительность : 42 м.
Вид битрейта : Постоянный
Битрейт : 384 Кбит/сек
Каналы : 6 каналов
Расположение каналов : Front: L C R, Side: L R, LFE
Частота : 48,0 КГц
Частота кадров : 31,250 кадров/сек (1536 spf)
Битовая глубина : 16 бит
Метод сжатия : С потерями
Размер потока : 117 Мбайт (16%)
Default : Да
Forced : Нет


При каждом добавлении новой серии создается новый торрент-файл. Чтобы начать докачку новой серии, пользователям необходимо сделать следующее:
(1) остановить скачивание
(2) удалить старый торрент у себя из клиента (старые серии удалять не надо)
(3) скачать новый торрент и запустить его у себя в клиенте вместо старого, при этом указать клиенту путь в старую папку куда и должно происходить скачивание новых серий.

Ваша программа (например UTorrent) при этом должна произвести хеширование (проверку) старой папки (если не производит сама - помогите ему сделать это), и будет докачивать только те серии которых у вас ещё нет. Старые серии при этом не удаляются, а продолжают раздаваться (Важно!)

Eсли вы уже удалили старые серии, то предотвратить повторную закачку старых серий можно, отжав галочку в соответствующих местах при запуске нового торрента. По возможности, желательно не удалять старые серии как можно дольше, чтобы релизёр не столько продолжал раздавать старые серии, а смог сконцентрироваться на новых























   Похожие торренты   Торрент   Размер 
В этой теме нет новых непрочитанных сообщений. Сотня, 3 сезон 1-3 серии из 16 / The 100 / The Hundred [NewStudio] (Дин Уайт, П.Дж. Пеше, Майрзи Алмас) [2016, фантастика, драма, детектив, WEB-DLRip-AVC, P]

288 | 72

2.12 ГБ

В этой теме нет новых непрочитанных сообщений. Я - зомби, 2 сезон 1-11 серия из 13 / iZombie [BaibaKo] (Роб Томас, Майрзи Алмас) [2015, ужасы, фантастика, драма, криминал, WEB-DLRip, P]

67 | 151

6.16 ГБ

В этой теме нет новых непрочитанных сообщений. Я – зомби, 2 сезон 1-11 серии из 19 / iZombie [NewStudio] (Майрзи Алмас, Роб Томас) [2015, ужасы, фантастика, драма, криминал, WEB-DLRip-AVC, P]

66 | 47

7.77 ГБ

В этой теме нет новых непрочитанных сообщений. Люцифер, 1 сезон 1-2 серии из 13 / Lucifer [NewStudio] (Нэйтан Хоуп, Лен Уайзман, Майрзи Алмас) [2015, фэнтези, драма, детектив, WEB-DLRip-AVC, P]

76 | 26

1.47 ГБ

В этой теме нет новых непрочитанных сообщений. Сумеречные охотники, 1 сезон 1-4 серия из 13 / Shadowhunters [ColdFilm] (Дж. Майлз Дэйл, МакДжи, Майрзи Алмас) [2016, фэнтези, боевик, драма, HDTVRip, L2]

41 | 100

1.3 ГБ

В этой теме нет новых непрочитанных сообщений. Сумеречные охотники, 1 сезон 1-4 серии из 13 / Shadowhunters [NewStudio] (Дж. Майлз Дэйл, МакДжи, Майрзи Алмас) [2016, фэнтези, боевик, драма, приключения, WEB-DLRip-AVC, P]

34 | 47

2.74 ГБ

В этой теме нет новых непрочитанных сообщений. Секретные материалы, 10 сезон 1-3 серия из 6 / The X-Files [Кравец] (Крис Картер, Дэрин Морган, Глен Морган) [2016, фантастика, триллер, драма, детектив, WEB-DLRip, P]

25 | 14

1.64 ГБ




Вы не можете начинать темы
Вы не можете отвечать на сообщения
Вы не можете редактировать свои сообщения
Вы не можете удалять свои сообщения
Вы не можете добавлять вложения

Перейти:  
Для Мосгорсуда, Роскомнадзора и рекламодателей: mosgorsud-torrent[собачка]yandex.ru
 Вход
ppkBB3cker v.2 © 2008-2014 @ PPK
[ Time : 0.170s | 16 Queries | GZIP : On ]

Торрент трекер RUTOR.IN, Не можете зайти на rutor.org? Какой новый адрес рутор? Какое зеркало рутор? Не работает rutor.org и зеркала? Тогда наш торрент специально для вас. Rutor.in неофициальное зеркало rutor. В случае если у Вас заблокирован rutor или вдруг Вы не можете на него зайти, то Вы без труда сможете скачать бесплатно и без рекламы последние новинки кино, игр, сериалов и прочего у нас, на Rutor.in. Не нужно использовать прокси, чтобы зайти на рутор, достаточно воспользоваться нашим ресурсом. Все новые фильмы, игры, сериалы, книги и музыка за 2013 и 2014 годы через торрент бесплатно. Скачивайте фильмы в хорошем качестве, игры для пк, xbox, playstation без регистрации. У нас вы найдете новые Зарубежные сериалы и Русские сериалы 2013, 2014, 2015 годов. Оставайтесь с нами, качайте любимые фильмы, игры, сериалы, книги и музыку.