img image001 image001 image001 image001 image001 image001 image001 image001 image001 image001 image001 image001 image001 image001 image001

Planets Sun Sun Sun
Статистика раздачи
Автор: Nickolas3434 | Размер: 1.5 ГБ | Добавлен: 28 янв 2016
Раздают: 257    Качают: 67
Скачать торрент
Скачать торрент
Описание торрента

СообщениеДобавлено: 28 янв 2016 

Второй шанс, 1 сезон 1-2 серии из 13 / Second Chance
Оценка релиза: 
«Смерть дала ему второй шанс в жизни...»

Перевод: Профессиональный (многоголосый закадровый) [BaibaKo]
Cубтитры: отсутствуют
Формат: WEB-DLRip (AVC), MKV, H.264, AC3
Страна: США
Режиссер: Сара Пиа Андерсон, Майкл Куэста, Адам Кэйн
Жанр: ужасы, фантастика, драма
Всего серий: 13
Продолжительность: ~ 00:46:00 серия
Год выпуска: 2016

В ролях: Роберт Казински, Адхир Кальян, Дилшад Вадсариа, Тим ДиКей, Сиэра Браво, Ванесса Ленгиз, Кармен Мур, Адан Канто, Фрэнсис З. МакКарти, Джесси Ирвинг

Описание: Герой сериала - 75-ти летний шериф одного из городков США, ужасный человек, пьяница и плохой отец, Джимми Притчард. Из за скандала в полицейском участке, он с позором уходит на пенсию. Однажды, ему на пути повстречался грабитель, который убивает Джимми. Двое талантливых ученых, собираются сделать прорыв в науке и воскресить человека, обладая уникальным генетическим кодом, труп Джими идеально подошел им. Эксперимент удался, Притчард получает второй шанс, как и новое молодое тело, невероятную силу и выносливость. Он стал своего рода новым Франкенштейном, от которого можно ожидать, все что угодно. Но первым делом главный герой отправляется на поиски своего убийцы, он хочет узнать, почему его убили и что искал убийца в доме его сына...

Рейтинг:


Видео: 1024х576 (16:9 ), 23,976 fps, AVC (х264), , ~2000 Kbps avg, 0.141 bit/pixel
Аудио: 48.0 KHz, AC3 Dolby Digital, 2 channels (Front: L R), ~384 kbps avg

Доп. информация: звук перевода и оригинальная дорожка Dolby Digital 5.1
Полноэкранное изображение (16:9) Рип с WEB-DL 1080р
    Общее
    Уникальный идентификатор : 198218452798051431793731661543475370293 (0x951F7C41B14595F8B384149EB1CDD935)
    Полное имя : D:\Video\...\vtoroy_shans_s01e01_[tfile.me].mkv
    Формат : Matroska
    Версия формата : Version 4 / Version 2
    Размер файла : 788 Мбайт
    Продолжительность : 46 м.
    Общий поток : 2385 Кбит/сек
    Дата кодирования : UTC 2015-12-27 04:12:00
    Программа кодирования : mkvmerge v6.9.1 ('Blue Panther') 64bit built on Apr 18 2014 18:23:38
    Библиотека кодирования : Lavf54.63.104

    Видео
    Идентификатор : 1
    Формат : AVC
    Формат/Информация : Advanced Video Codec
    Профиль формата :
    Параметр CABAC формата : Да
    Параметр ReFrames формата : 2 кадра
    Идентификатор кодека : V_MPEG4/ISO/AVC
    Продолжительность : 46 м.
    Битрейт : 2000 Кбит/сек
    Ширина : 1024 пикселя
    Высота : 576 пикселей
    Соотношение сторон : 16:9
    Режим частоты кадров : Постоянный
    Частота кадров : 23,976 кадра/сек
    Цветовое пространство : YUV
    Субдискретизация насыщенности : 4:2:0
    Битовая глубина : 8 бит
    Тип развёртки : Прогрессивная
    Бит/(Пиксели*Кадры) : 0.141
    Размер потока : 646 Мбайт (82%)
    Библиотека кодирования : x264 core 129
    Настройки программы : cabac=1 / ref=2 / deblock=1:0:0 / analyse=0x3:0x113 / me=hex / subme=6 / psy=1 / psy_rd=1.00:0.00 / mixed_ref=1 / me_range=16 / chroma_me=1 / trellis=0 / 8x8dct=1 / cqm=0 / deadzone=21,11 / fast_pskip=1 / chroma_qp_offset=-2 / threads=4 / lookahead_threads=1 / sliced_threads=0 / nr=0 / decimate=1 / interlaced=0 / bluray_compat=0 / constrained_intra=0 / bframes=0 / weightp=2 / keyint=250 / keyint_min=25 / scenecut=40 / intra_refresh=0 / rc_lookahead=40 / rc=2pass / mbtree=1 / bitrate=2000 / ratetol=1.0 / qcomp=0.60 / qpmin=10 / qpmax=51 / qpstep=4 / cplxblur=20.0 / qblur=0.5 / ip_ratio=1.41 / aq=1:1.00
    Default : Да
    Forced : Нет

    Аудио
    Идентификатор : 2
    Формат : AC-3
    Формат/Информация : Audio Coding 3
    Расширение режима : CM (complete main)
    Параметр Endianness формата : Big
    Идентификатор кодека : A_AC3
    Продолжительность : 46 м.
    Вид битрейта : Постоянный
    Битрейт : 384 Кбит/сек
    Каналы : 2 канала
    Расположение каналов : Front: L R
    Частота : 48,0 КГц
    Метод сжатия : С потерями
    Размер потока : 127 Мбайт (16%)
    Язык : Russian
    Default : Да
    Forced : Нет


При каждом добавлении новой серии создается новый торрент-файл. Чтобы начать докачку новой серии, пользователям необходимо сделать следующее:
(1) остановить скачивание
(2) удалить старый торрент у себя из клиента (старые серии удалять не надо)
(3) скачать новый торрент и запустить его у себя в клиенте вместо старого, при этом указать клиенту путь в старую папку куда и должно происходить скачивание новых серий.

Ваша программа (например UTorrent) при этом должна произвести хеширование (проверку) старой папки (если не производит сама - помогите ему сделать это), и будет докачивать только те серии которых у вас ещё нет. Старые серии при этом не удаляются, а продолжают раздаваться (Важно!)

Eсли вы уже удалили старые серии, то предотвратить повторную закачку старых серий можно, отжав галочку в соответствующих местах при запуске нового торрента. По возможности, желательно не удалять старые серии как можно дольше, чтобы релизёр не столько продолжал раздавать старые серии, а смог сконцентрироваться на новых















   Похожие торренты   Торрент   Размер 
В этой теме нет новых непрочитанных сообщений. Второй шанс, 1 сезон 1-3 серии из 13 / Second Chance [BaibaKo] (Сара Пиа Андерсон, Майкл Куэста, Адам Кэйн) [2016, ужасы, фантастика, драма, WEB-DLRip-AVC, P]

82 | 36

2.22 ГБ

В этой теме нет новых непрочитанных сообщений. Второй шанс, 1 сезон 1-3 серии из 13 / Second Chance [NewStudio] (Сара Пиа Андерсон, Майкл Куэста, Адам Кэйн) [2016, ужасы, фантастика, драма, WEB-DLRip, P]

297 | 129

1.59 ГБ

В этой теме нет новых непрочитанных сообщений. Второй шанс, 1 сезон 1-2 серии из 13 / Second Chance [NewStudio] (Сара Пиа Андерсон, Майкл Куэста, Адам Кэйн) [2016, ужасы, фантастика, драма, WEB-DLRip, P]

377 | 216

1.06 ГБ

В этой теме нет новых непрочитанных сообщений. Второй шанс, 1 сезон 1-2 серия из 13 / Second Chance [Baibako] (Сара Пиа Андерсон, Майкл Куэста, Адам Кэйн) [2015, ужасы, фантастика, драма, WEB-DLRip, P]

172 | 109

1.14 ГБ

В этой теме нет новых непрочитанных сообщений. Второй шанс, 1 сезон 1-3 серия из 13 / Second Chance [Baibako] (Сара Пиа Андерсон, Майкл Куэста, Адам Кэйн) [2015, ужасы, фантастика, драма, WEB-DLRip, P]

304 | 276

1.72 ГБ

В этой теме нет новых непрочитанных сообщений. Изгои, 1 сезон 1-2 серии из 13 / Outsiders [NewStudio] (Адам Бернштейн, Майкл Трим) [2016, драма, WEB-DLRip, P]

128 | 43

1.2 ГБ

В этой теме нет новых непрочитанных сообщений. Я – зомби, 2 сезон 1-11 серии из 19 / iZombie [NewStudio] (Майрзи Алмас, Роб Томас) [2015, ужасы, фантастика, драма, криминал, WEB-DLRip-AVC, P]

66 | 47

7.77 ГБ




Вы не можете начинать темы
Вы не можете отвечать на сообщения
Вы не можете редактировать свои сообщения
Вы не можете удалять свои сообщения
Вы не можете добавлять вложения

Перейти:  
Для Мосгорсуда, Роскомнадзора и рекламодателей: mosgorsud-torrent[собачка]yandex.ru
 Вход
ppkBB3cker v.2 © 2008-2014 @ PPK
[ Time : 0.030s | 16 Queries | GZIP : Off ]

Торрент трекер RUTOR.IN, Не можете зайти на rutor.org? Какой новый адрес рутор? Какое зеркало рутор? Не работает rutor.org и зеркала? Тогда наш торрент специально для вас. Rutor.in неофициальное зеркало rutor. В случае если у Вас заблокирован rutor или вдруг Вы не можете на него зайти, то Вы без труда сможете скачать бесплатно и без рекламы последние новинки кино, игр, сериалов и прочего у нас, на Rutor.in. Не нужно использовать прокси, чтобы зайти на рутор, достаточно воспользоваться нашим ресурсом. Все новые фильмы, игры, сериалы, книги и музыка за 2013 и 2014 годы через торрент бесплатно. Скачивайте фильмы в хорошем качестве, игры для пк, xbox, playstation без регистрации. У нас вы найдете новые Зарубежные сериалы и Русские сериалы 2013, 2014, 2015 годов. Оставайтесь с нами, качайте любимые фильмы, игры, сериалы, книги и музыку.