img image001 image001 image001 image001 image001 image001 image001 image001 image001 image001 image001 image001 image001 image001 image001

Planets Sun Sun Sun
Статистика раздачи
Автор: Nickolas3434 | Размер: 19.84 ГБ | Добавлен: 28 янв 2016
Раздают: 32    Качают: 76
Скачать торрент
Скачать торрент
Описание торрента

СообщениеДобавлено: 28 янв 2016 

Герои: Возрождение, 1 сезон 0-13 серии из 13 / Heroes Reborn

«Новое явление начинается...»

Перевод: Профессиональный (многоголосый, закадровый) [LostFilm]
Субтитры: отсутствуют
Формат: WEB-DL 720p, MKV, H.264, AC3
Страна: США
Режиссер: Лариса Кондрацки, Аллан Аркуш, Грег Биман
Жанр: фантастика, фэнтези, триллер, драма
Всего серий: 13+1
Продолжительность: 14 x ~ 00:43:00
Год выпуска: 2015

В ролях: Закари Левай (Люк Коллинз), Джудит Шекони (Джоанна Коллинз), Даника Ярош (Малина), Райан Гузман (Карлос Гутьеррес), Робби Кэй (Томми Кларк), Кики Сукзен (Мико Отомо), Гэтлин Грин (Эмили), Джек Коулмэн (Ной Беннет), Джимми Жан-Луи (Гаитянин), Кристин Роуз (Анджела Петрелли), Грег Гранберг (Мэтт Паркман), Сендхил Рамамерти (Мохиндер Суреш), Маси Ока (Хиро Накамура)

Описание: Год назад ужасный теракт в Одессе, штат Техас, практически уничтожил весь город. Виновниками произошедшей трагедии были признаны люди с экстраординарными способностями. Теперь они вынуждены скрываться и убегать от тех, кто мечтает воспользоваться их необычайными возможностями в собственных целях. Но каждый день в мире появляются новые герои, которые не знают, что им делать со своими удивительными талантами и пытаются жить, как раньше. Так, Люк и Джоанна одержимы личной вендеттой. Томми, как и любой подросток, мечтает завоевать сердце девушки своей мечты. Малина растет в любящей семье, где все ее холят и лелеют, веруя, что она рождена для свершения великих дел. Между тем в Токио Мико разыскивает пропавшего отца. Но наступает момент, когда новым героям приходится объединиться, чтобы противостоять вселенскому злу и спасти человечество. Неоценимую помощь в этом трудном деле им окажут уже знакомые зрителям Ной Беннет, Хиро Накамура, Мэтт Паркман и Мохиндер Суреш, готовые поделиться богатым опытом с молодым поколением.

Рейтинг:


Видео: 1280x720 (1.77:1), 23,976 fps, AVC (х264), ~3937 Kbps avg, 0.178 bit/pixel
Аудио Rus: 48 kHz, AC3 Dolby Digital, 2/0 (L,R) ch ~384.00 kbps avg
Аудио Eng: 48 kHz, AC3 Dolby Digital, 3/2 (L,C,R,l,r) + LFE ch, ~384.00 kbps avg

Релиз:

00. Тёмные материи (Dark matters)
01. О дивный новый мир (Brave New World)
02. Одесса (Odessa)
03. Под маской (Under the Mask)
04. Ради общего блага (The Needs of the Many)
05. Логово льва (The Lion's Den)
06. Игра окончена (Game Over)
07. 13 июня. Часть первая (June 13th Part One)
08. 13 июня. Часть вторая (June 13th Part Two)
09. Воскресенье, кровавое воскресенье (Sundae, Bloody Sundae)
10. 11:53 по Одессе (11:53 to Odessa)
11. Отправьте туда клонов (Send in the Clones)
12. Преданная сотрудница (Company Woman)
13. Проект Возрождение (Project Reborn)


«Герои: Возрождение» — это новая фантастическая драма канала NBC, которая является своеобразной перезагрузкой популярного проекта «Герои», выходившего на экраны с 2006 по 2010 год. В свое время оригинальный сериал положил начало тенденции снимать телешоу о людях со сверхспособностями, которая впоследствии приобрела невероятные масштабы. К работе над Heroes Reborn вернулся создатель «Героев» Тим Кринг, а потому поклонники оригинала вполне могут рассчитывать на то, что продюсер и в новом проекте постарается сохранить незабываемую атмосферу Heroes. При этом «Возрождение» обещает стать вполне самостоятельным сериалом, который способен привлечь к просмотру не только давних фанатов вселенной, но и тех зрителей, которые с этим миром пока не знакомы

Общее
Уникальный идентификатор : 221582281078241857987023823454198686736 (0xA6B331ED512D40F09748334A5201E410)
Полное имя : D:\кино\сериалы\герои\Heroes.Reborn.s01.WEB-DL.720p.LostFilm\Heroes.Reborn.s01e01.WEB-DL.720p.LostFilm.mkv
Формат : Matroska
Версия формата : Version 2
Размер файла : 1,44 Гбайт
Продолжительность : 43 м.
Общий поток : 4801 Кбит/сек
Дата кодирования : UTC 2015-09-26 17:32:59
Программа кодирования : mkvmerge v4.1.1 ('Bouncin' Back') built on Jul 3 2010 22:54:08
Библиотека кодирования : libebml v1.0.0 + libmatroska v1.0.0

Видео
Идентификатор : 1
Формат : AVC
Формат/Информация : Advanced Video Codec
Профиль формата :
Параметр CABAC формата : Нет
Параметр ReFrames формата : 2 кадра
Идентификатор кодека : V_MPEG4/ISO/AVC
Продолжительность : 43 м.
Битрейт : 3937 Кбит/сек
Ширина : 1280 пикселей
Высота : 720 пикселей
Соотношение сторон : 16:9
Частота кадров : 23,976 кадра/сек
Цветовое пространство : YUV
Субдискретизация насыщенности : 4:2:0
Битовая глубина : 8 бит
Тип развёртки : Прогрессивная
Бит/(Пиксели*Кадры) : 0.178
Размер потока : 1,18 Гбайт (82%)
Язык : English
Основные цвета : BT.709-5, BT.1361, IEC 61966-2-4, SMPTE RP177
Характеристики трансфера : BT.709-5, BT.1361
Коэффициенты матрицы : BT.709-5, BT.1361, IEC 61966-2-4 709, SMPTE RP177

Аудио #1
Идентификатор : 2
Формат : AC-3
Формат/Информация : Audio Coding 3
Расширение режима : CM (complete main)
Режим смешивания : Header stripping
Идентификатор кодека : A_AC3
Продолжительность : 43 м.
Вид битрейта : Постоянный
Битрейт : 384 Кбит/сек
Каналы : 2 канала
Расположение каналов : Front: L R
Частота : 48,0 КГц
Битовая глубина : 16 бит
Метод сжатия : С потерями
Задержка видео : 20 мс.
Размер потока : 118 Мбайт (8%)
Заголовок : LostFilm
Язык : Russian

Аудио #2
Идентификатор : 3
Формат : AC-3
Формат/Информация : Audio Coding 3
Расширение режима : CM (complete main)
Режим смешивания : Header stripping
Идентификатор кодека : A_AC3
Продолжительность : 43 м.
Вид битрейта : Постоянный
Битрейт : 384 Кбит/сек
Каналы : 6 каналов
Расположение каналов : Front: L C R, Side: L R, LFE
Частота : 48,0 КГц
Битовая глубина : 16 бит
Метод сжатия : С потерями
Размер потока : 118 Мбайт (8%)
Язык : English






   Похожие торренты   Торрент   Размер 
В этой теме нет новых непрочитанных сообщений. Герои: Возрождение, 1 сезон 0-13 серии из 13 / Heroes Reborn [LostFilm] (Лариса Кондрацки, Аллан Аркуш, Грег Биман) [2015, фантастика, фэнтези, WEB-DL 1080p, P]

64 | 41

25.1 ГБ

В этой теме нет новых непрочитанных сообщений. Герои: Возрождение, 1 сезон 0-13 серии из 13 / Heroes Reborn [Baibako] (Лариса Кондрацки, Аллан Аркуш, Грег Биман) [2015, фантастика, фэнтези, WEB-DL 720p, P]

2 | 10

19.8 ГБ

В этой теме нет новых непрочитанных сообщений. Герои: Возрождение, 1 сезон 1-13 серии из 13 / Heroes Reborn [IdeaFilm] (Лариса Кондрацки, Аллан Аркуш, Грег Биман) [2015, фантастика, фэнтези, WEB-DLRip, P]

125 | 32

6.51 ГБ

В этой теме нет новых непрочитанных сообщений. Герои: Возрождение, 1 сезон 0-13 серии из 13 / Heroes Reborn [Baibako] (Лариса Кондрацки, Аллан Аркуш, Грег Биман) [2015, фантастика, фэнтези, WEB-DL 1080p, P]

7 | 7

24.44 ГБ

В этой теме нет новых непрочитанных сообщений. Герои: Возрождение, 1 сезон 1-13 серии из 13 / Heroes Reborn [Jaskier] (Лариса Кондрацки, Аллан Аркуш, Грег Биман) [2015, фантастика, фэнтези, HDTVRip, P]

350 | 119

7.19 ГБ

В этой теме нет новых непрочитанных сообщений. Герои: Возрождение, 1 сезон 00-13 серии / Heroes Reborn [NewStudio] (Лариса Кондрацки, Грег Биман, Мэтт Шекман) [2015, фантастика, фэнтези, WEB-DLRip-AVC, P]

31 | 16

9.91 ГБ

В этой теме нет новых непрочитанных сообщений. Герои: Возрождение, 1 сезон 0-13 серия из 13 / Heroes Reborn [LostFilm] (Лариса Кондрацки, Грег Биман, Мэтт Шекман) [2015, триллер, драма, фантастика, фэнтези, WEB-DLRip, P]

945 | 380

7.52 ГБ




Вы не можете начинать темы
Вы не можете отвечать на сообщения
Вы не можете редактировать свои сообщения
Вы не можете удалять свои сообщения
Вы не можете добавлять вложения

Перейти:  
Для Мосгорсуда, Роскомнадзора и рекламодателей: mosgorsud-torrent[собачка]yandex.ru
 Вход
ppkBB3cker v.2 © 2008-2014 @ PPK
[ Time : 0.051s | 16 Queries | GZIP : On ]

Торрент трекер RUTOR.IN, Не можете зайти на rutor.org? Какой новый адрес рутор? Какое зеркало рутор? Не работает rutor.org и зеркала? Тогда наш торрент специально для вас. Rutor.in неофициальное зеркало rutor. В случае если у Вас заблокирован rutor или вдруг Вы не можете на него зайти, то Вы без труда сможете скачать бесплатно и без рекламы последние новинки кино, игр, сериалов и прочего у нас, на Rutor.in. Не нужно использовать прокси, чтобы зайти на рутор, достаточно воспользоваться нашим ресурсом. Все новые фильмы, игры, сериалы, книги и музыка за 2013 и 2014 годы через торрент бесплатно. Скачивайте фильмы в хорошем качестве, игры для пк, xbox, playstation без регистрации. У нас вы найдете новые Зарубежные сериалы и Русские сериалы 2013, 2014, 2015 годов. Оставайтесь с нами, качайте любимые фильмы, игры, сериалы, книги и музыку.