img image001 image001 image001 image001 image001 image001 image001 image001 image001 image001 image001 image001 image001 image001 image001

Planets Sun Sun Sun
Статистика раздачи
Автор: Nickolas3434 | Размер: 3 ГБ | Добавлен: 28 янв 2016
Раздают: 74    Качают: 142
Скачать торрент
Скачать торрент
Описание торрента

СообщениеДобавлено: 28 янв 2016 

Беовульф, 1 сезон 1-4 серии из 13 / Beowulf: Return to the Shieldlands

«Взгляни в глаза демонам...»

Перевод: Профессиональный (многоголосый, закадровый) [NewStudio]
Cубтитры: отсутствуют
Формат: WEB-DLRip (AVC), MKV, H.264, AC3
Страна: США
Режиссер: Джон Ист, Джулиан Холмс, Марек Лоузи
Жанр: фэнтези, боевик, драма, приключения
Всего серий: 13
Продолжительность: ~ 00:45:00 серия
Год выпуска: 2016

В ролях: Гисли Орн Гардарссон, Киран Бью, Лолита Чакрабарти, Кирсти Освальд, Эшли Томас, Пабло Вердехо, Сьюзен Адерин, Дэвид Аджала, Джои Анса

Описание: Спустя долгие двадцать лет, проведённых в странствованиях и жестоких сражениях, отважный воин-наёмник Беофульф возвращается в Хеорот, чтобы выразить своё почтение давнему другу тану Хротгару, но с прискорбием узнает, что тот недавно скончался.

Через некоторое время в городе происходит загадочное событие - одного из лучших воинов находят жестоко убитым. Беовульф, чувствуя вину за то, что не успел отдать должное Хротгару при жизни, клянётся защитить город и во что бы то ни стало найти убийцу. В тот момент наш герой даже не догадывается, что ему придется столкнуться с невероятно сильным кровожадным монстром, люто ненавидящим людей...


Рейтинг:


Видео: 1024х576 (16:9), 25 fps, AVC (х264), , ~1952 Kbps avg, 0.132 bit/pixel
Аудио: 48.0 KHz, AC3 Dolby Digital, 6 channels (Front: L C R, Side: L R, LFE), ~384 kbps avg

Доп. информация: звук перевода и оригинальная дорожка Dolby Digital 5.1
Полноэкранное изображение (16:9) без "черных" полос. Рип с WEB-DL 1080р. Автор рипа: Д.И.С. Релиз группы:
    Общее
    Уникальный идентификатор : 305993084015495630498794227882197978097 (0xE6341FD3F71FBCA56C09303D6A670BF1)
    Полное имя : D:\Video\...\beovulf_vozvrashenie_v_shildlends_s01e01_[tfile.me]_rip_DIS.mkv
    Формат : Matroska
    Версия формата : Version 2
    Размер файла : 770 Мбайт
    Продолжительность : 45 м.
    Режим общего битрейта : Переменный
    Общий поток : 2383 Кбит/сек
    Дата кодирования : UTC 2015-12-29 22:26:40
    Программа кодирования : Lavf54.63.104
    Библиотека кодирования : Lavf54.63.104

    Видео
    Идентификатор : 1
    Формат : AVC
    Формат/Информация : Advanced Video Codec
    Профиль формата :
    Параметр CABAC формата : Да
    Параметр ReFrames формата : 1 кадр
    Параметр GOP формата : M=1, N=15
    Идентификатор кодека : V_MPEG4/ISO/AVC
    Продолжительность : 45 м.
    Вид битрейта : Переменный
    Битрейт : 1952 Кбит/сек
    Максимальный битрейт : 6000 Кбит/сек
    Ширина : 1024 пикселя
    Высота : 576 пикселей
    Соотношение сторон : 16:9
    Режим частоты кадров : Постоянный
    Частота кадров : 25,000 кадров/сек
    Цветовое пространство : YUV
    Субдискретизация насыщенности : 4:2:0
    Битовая глубина : 8 бит
    Тип развёртки : Прогрессивная
    Бит/(Пиксели*Кадры) : 0.132
    Размер потока : 630 Мбайт (82%)
    Default : Да
    Forced : Нет

    Аудио
    Идентификатор : 2
    Формат : AC-3
    Формат/Информация : Audio Coding 3
    Расширение режима : CM (complete main)
    Параметр Endianness формата : Big
    Идентификатор кодека : A_AC3
    Продолжительность : 45 м.
    Вид битрейта : Постоянный
    Битрейт : 384 Кбит/сек
    Каналы : 6 каналов
    Расположение каналов : Front: L C R, Side: L R, LFE
    Частота : 48,0 КГц
    Битовая глубина : 16 бит
    Метод сжатия : С потерями
    Размер потока : 124 Мбайт (16%)
    Default : Да
    Forced : Нет


При каждом добавлении новой серии создается новый торрент-файл. Чтобы начать докачку новой серии, пользователям необходимо сделать следующее:
(1) остановить скачивание
(2) удалить старый торрент у себя из клиента (старые серии удалять не надо)
(3) скачать новый торрент и запустить его у себя в клиенте вместо старого, при этом указать клиенту путь в старую папку куда и должно происходить скачивание новых серий.

Ваша программа (например UTorrent) при этом должна произвести хеширование (проверку) старой папки (если не производит сама - помогите ему сделать это), и будет докачивать только те серии которых у вас ещё нет. Старые серии при этом не удаляются, а продолжают раздаваться (Важно!)

Eсли вы уже удалили старые серии, то предотвратить повторную закачку старых серий можно, отжав галочку в соответствующих местах при запуске нового торрента. По возможности, желательно не удалять старые серии как можно дольше, чтобы релизёр не столько продолжал раздавать старые серии, а смог сконцентрироваться на новых



















   Похожие торренты   Торрент   Размер 
В этой теме нет новых непрочитанных сообщений. Беовульф, 1 сезон 1-5 серии из 13 / Beowulf: Return to the Shieldlands [NewStudio] (Джон Ист, Джулиан Холмс, Марек Лоузи) [2016, фэнтези, боевик, драма, приключения, WEB-DLRip-AVC, P]

45 | 33

3.77 ГБ

В этой теме нет новых непрочитанных сообщений. Беовульф, 1 сезон 1-4 серия из 13 / Beowulf: Return to the Shieldlands [NewStudio] (Джон Ист, Джулиан Холмс, Марек Лоузи) [2016, фэнтези, боевик, драма, приключения, WEB-DLRip, P]

209 | 378

2.1 ГБ

В этой теме нет новых непрочитанных сообщений. Беовульф, 1 сезон 1-3 серия из 13 / Beowulf: Return to the Shieldlands [NewStudio] (Джон Ист, Джулиан Холмс, Марек Лоузи) [2016, фэнтези, боевик, драма, приключения, WEB-DLRip, P]

215 | 125

1.58 ГБ

В этой теме нет новых непрочитанных сообщений. Беовульф, 1 сезон 1-5 серия из 13 / Beowulf: Return to the Shieldlands [NewStudio] (Джон Ист, Джулиан Холмс, Марек Лоузи) [2016, фэнтези, боевик, драма, приключения, WEB-DLRip, P]

295 | 179

2.62 ГБ

В этой теме нет новых непрочитанных сообщений. Беовульф: Возвращение в Шилдлендс, 1 сезон 1-3 серии из 13 / Beowulf: Return to the Shieldlands [Baibako] (Джеймс Дормер) [2015-2016, фэнтези, приключения, WEB-DLRip, P]

225 | 28

1.8 ГБ

В этой теме нет новых непрочитанных сообщений. Сумеречные охотники, 1 сезон 1-4 серии из 13 / Shadowhunters [NewStudio] (Дж. Майлз Дэйл, МакДжи, Майрзи Алмас) [2016, фэнтези, боевик, драма, приключения, WEB-DLRip-AVC, P]

34 | 47

2.74 ГБ

В этой теме нет новых непрочитанных сообщений. Стрела, 4 сезон 1-10 серии из 23 / Arrow [BaibaKo] (Грег Берланти) [2015, фантастика, фэнтези, боевик, драма, приключения, WEB-DLRip, P]

249 | 46

5.64 ГБ




Вы не можете начинать темы
Вы не можете отвечать на сообщения
Вы не можете редактировать свои сообщения
Вы не можете удалять свои сообщения
Вы не можете добавлять вложения

Перейти:  
Для Мосгорсуда, Роскомнадзора и рекламодателей: mosgorsud-torrent[собачка]yandex.ru
 Вход
ppkBB3cker v.2 © 2008-2014 @ PPK
[ Time : 0.049s | 15 Queries | GZIP : On ]

Торрент трекер RUTOR.IN, Не можете зайти на rutor.org? Какой новый адрес рутор? Какое зеркало рутор? Не работает rutor.org и зеркала? Тогда наш торрент специально для вас. Rutor.in неофициальное зеркало rutor. В случае если у Вас заблокирован rutor или вдруг Вы не можете на него зайти, то Вы без труда сможете скачать бесплатно и без рекламы последние новинки кино, игр, сериалов и прочего у нас, на Rutor.in. Не нужно использовать прокси, чтобы зайти на рутор, достаточно воспользоваться нашим ресурсом. Все новые фильмы, игры, сериалы, книги и музыка за 2013 и 2014 годы через торрент бесплатно. Скачивайте фильмы в хорошем качестве, игры для пк, xbox, playstation без регистрации. У нас вы найдете новые Зарубежные сериалы и Русские сериалы 2013, 2014, 2015 годов. Оставайтесь с нами, качайте любимые фильмы, игры, сериалы, книги и музыку.