img image001 image001 image001 image001 image001 image001 image001 image001 image001 image001 image001 image001 image001 image001 image001

Planets Sun Sun Sun
Статистика раздачи
Автор: Nickolas3434 | Размер: 3.18 ГБ | Добавлен: 28 янв 2016
Раздают: 263    Качают: 6
Скачать торрент
Скачать торрент
Описание торрента

СообщениеДобавлено: 28 янв 2016 

Пансионат "Сказка", или Чудеса включены (1-4 серии из 4)

Формат: HDTVRip-AVC, MKV, H.264, AC3
Режиссер: Александр Жигалкин
Жанр: комедия, мелодрама
Продолжительность: 4 x ~ 00:45:00
Год выпуска: 2015

В ролях: Светлана Антонова, Павел Трубинер, Александр Лыков, Игорь Золотовицкий, Дарья Фекленко, Ася Домская, Андрей Бурковский, Джемал Тетруашвили, Татьяна Пискарёва, Пётр Янданов, Юрий Щербаков (II), Юрий Ваксман, Владимир Иванов, Олег Кассин, Нонна Гришаева

Описание:
Год выдался не очень удачным для миллионера Евгения Портнова: после развода мужчина остался практически без средств. У Евгения остался только пансионат «Сказка», который он собирается в ближайшее время продать. Портнов отправляется в «Сказку» в костюме Деда Мороза, чтобы еще раз осмотреть свое имущество. Пансионат полон гостей, которые приехали весело отметить праздник. Здесь и сборная по синхронному плаванию, и певец Алексей Кортнев, и девушка Ира, которая ждет своего сказочного принца. Смогут ли герои сериала «Пансионат Сказка, или Чудеса включены» найти свое счастье?

Рейтинг:


Видео: 1024x576 (16:9), AVC (H,264) ~2230 kbps avg, 0.151 bit/pixel
Аудио: 48 kHz, АС3, 2/0 (L,R), ~192.00 kbps avg

Общее
Полное имя : Pansionat.Skazka,ili.Chudesa.vklucheny.01.2015.HDTVRip.AVC.mkv
Формат : Matroska
Версия формата : Version 2
Размер файла : 784 Мбайт
Продолжительность : 44 м.
Общий поток : 2471 Кбит/сек
Дата кодирования : UTC 2015-12-30 22:24:13
Программа кодирования : mkvmerge v8.5.2 ('Crosses') 32bit
Библиотека кодирования : libebml v1.3.3 + libmatroska v1.4.4
DURATION : 00:44:22.624000000
NUMBER_OF_FRAMES : 83207
NUMBER_OF_BYTES : 63902976
_STATISTICS_WRITING_APP : mkvmerge v8.5.2 ('Crosses') 32bit
_STATISTICS_WRITING_DATE_UTC : 2015-12-30 22:24:13
_STATISTICS_TAGS : BPS DURATION NUMBER_OF_FRAMES NUMBER_OF_BYTES

Видео
Идентификатор : 1
Формат : AVC
Формат/Информация : Advanced Video Codec
Профиль формата :
Параметр CABAC формата : Да
Параметр ReFrames формата : 8 кадров
Идентификатор кодека : V_MPEG4/ISO/AVC
Продолжительность : 44 м.
Битрейт : 2230 Кбит/сек
Ширина : 1024 пикселя
Высота : 576 пикселей
Соотношение сторон : 16:9
Режим частоты кадров : Постоянный
Частота кадров : 25,000 кадров/сек
Цветовое пространство : YUV
Субдискретизация насыщенности : 4:2:0
Битовая глубина : 8 бит
Тип развёртки : Прогрессивная
Бит/(Пиксели*Кадры) : 0.151
Размер потока : 708 Мбайт (90%)
Библиотека кодирования : x264 core 148 r2638 7599210
Настройки программы : cabac=1 / ref=8 / deblock=1:-2:-2 / analyse=0x3:0x133 / me=umh / subme=9 / psy=1 / psy_rd=1.00:0.00 / mixed_ref=1 / me_range=24 / chroma_me=1 / trellis=2 / 8x8dct=1 / cqm=0 / deadzone=21,11 / fast_pskip=1 / chroma_qp_offset=-2 / threads=6 / lookahead_threads=1 / sliced_threads=0 / nr=0 / decimate=1 / interlaced=0 / bluray_compat=0 / constrained_intra=0 / bframes=6 / b_pyramid=2 / b_adapt=2 / b_bias=0 / direct=3 / weightb=1 / open_gop=0 / weightp=2 / keyint=250 / keyint_min=25 / scenecut=40 / intra_refresh=0 / rc_lookahead=60 / rc=crf / mbtree=1 / crf=18.0 / qcomp=0.60 / qpmin=10 / qpmax=51 / qpstep=4 / vbv_maxrate=62500 / vbv_bufsize=78125 / crf_max=0.0 / nal_hrd=none / filler=0 / ip_ratio=1.40 / aq=1:1.00
Default : Да
Forced : Нет

Аудио
Идентификатор : 2
Формат : AC-3
Формат/Информация : Audio Coding 3
Расширение режима : CM (complete main)
Параметр Endianness формата : Big
Идентификатор кодека : A_AC3
Продолжительность : 44 м.
Вид битрейта : Постоянный
Битрейт : 192 Кбит/сек
Каналы : 2 канала
Расположение каналов : Front: L R
Частота : 48,0 КГц
Битовая глубина : 16 бит
Метод сжатия : С потерями
Размер потока : 60,9 Мбайт (8%)
Язык : Russian
Default : Да
Forced : Нет








   Похожие торренты   Торрент   Размер 
В этой теме нет новых непрочитанных сообщений. Пансионат "Сказка", или Чудеса включены (1-4 серии из 4) (Александр Жигалкин) [2015, мелодрама, SATRip]

237 | 30

2.41 ГБ

В этой теме нет новых непрочитанных сообщений. Пансионат Сказка, или Чудеса включены [01-04 из 04] (2015) HDTVRip от Files-x

1160 | 152

2.15 ГБ

В этой теме нет новых непрочитанных сообщений. Пансионат Сказка, или Чудеса включены [01-04 из 04] (2015) HDTVRip-AVC от Files-x

363 | 25

2.81 ГБ

В этой теме нет новых непрочитанных сообщений. Пансионат Сказка, или Чудеса включены [01-04 из 04] (2015) HDTVRip 720p от MediaClub

153 | 40

7.39 ГБ

В этой теме нет новых непрочитанных сообщений. Волчонок, 5 сезон 1-15 серии из 20 / Teen Wolf [ColdFilm] (Тим Эндрю, Расселл Малкэй, Тоби Уилкинс) [2015, ужасы, триллер, драма, мелодрама, комедия, HDTVRip, L2]

95 | 268

5.2 ГБ

В этой теме нет новых непрочитанных сообщений. Волчонок, 5 сезон 1-14 серии из 20 / Teen Wolf [ColdFilm] (Тим Эндрю, Расселл Малкэй, Тоби Уилкинс) [2015, ужасы, триллер, драма, мелодрама, комедия, HDTVRip, L2]

89 | 334

4.88 ГБ

В этой теме нет новых непрочитанных сообщений. Нити любви (1-4 серии из 4) (Александр Соловьёв) [2014, мелодрама, SATRip]

320 | 18

3 ГБ




Вы не можете начинать темы
Вы не можете отвечать на сообщения
Вы не можете редактировать свои сообщения
Вы не можете удалять свои сообщения
Вы не можете добавлять вложения

Перейти:  
Для Мосгорсуда, Роскомнадзора и рекламодателей: mosgorsud-torrent[собачка]yandex.ru
 Вход
ppkBB3cker v.2 © 2008-2014 @ PPK
[ Time : 0.055s | 15 Queries | GZIP : Off ]

Торрент трекер RUTOR.IN, Не можете зайти на rutor.org? Какой новый адрес рутор? Какое зеркало рутор? Не работает rutor.org и зеркала? Тогда наш торрент специально для вас. Rutor.in неофициальное зеркало rutor. В случае если у Вас заблокирован rutor или вдруг Вы не можете на него зайти, то Вы без труда сможете скачать бесплатно и без рекламы последние новинки кино, игр, сериалов и прочего у нас, на Rutor.in. Не нужно использовать прокси, чтобы зайти на рутор, достаточно воспользоваться нашим ресурсом. Все новые фильмы, игры, сериалы, книги и музыка за 2013 и 2014 годы через торрент бесплатно. Скачивайте фильмы в хорошем качестве, игры для пк, xbox, playstation без регистрации. У нас вы найдете новые Зарубежные сериалы и Русские сериалы 2013, 2014, 2015 годов. Оставайтесь с нами, качайте любимые фильмы, игры, сериалы, книги и музыку.