img image001 image001 image001 image001 image001 image001 image001 image001 image001 image001 image001 image001 image001 image001 image001

Planets Sun Sun Sun
Статистика раздачи
Автор: Nickolas3434 | Размер: 2.14 ГБ | Добавлен: 29 янв 2016
Раздают: 47    Качают: 18
Скачать торрент
Скачать торрент
Описание торрента

СообщениеДобавлено: 29 янв 2016 

Агент Картер, 2 сезон 1-3 серии из 10 / Agent Carter

«Одна женщина - одна проблема...»

Перевод: Профессиональный (многоголосый, закадровый) [LostFilm]
Cубтитры: отсутствуют
Формат: WEB-DLRip (AVC), MKV, H.264, AC3
Страна: США
Режиссер: Стивен Крегг, Луис Д’Эспозито, Питер Лето
Жанр: фантастика, боевик, приключения
Всего серий: 10
Продолжительность: ~ 00:43:00 серия
Год выпуска: 2016

В ролях: Хейли Этвелл, Джеймс Д’Арси, Чад Майкл Мюррэй, Энвер Гьокай, Бриджет Риган, Доминик Купер, Регги Остин, Винн Эверетт, Карри Грэм, Кен Марино

Описание: 1946 год, послевоенная Америка.
В мире, где мужчины наслаждаются отголосками своей боевой славы, а женщины пребывают в их тени, полная сил и энтузиазма Пегги Картер чувствует себя лишней. День за днем ей приходится разбирать завалы скучных документов в Стратегическом научном резерве, страдая от трагической потери Стива Роджерса и невозможности реализовать свои шпионские таланты.
Но все меняется, когда к ней обращается старый знакомый Говард Старк с просьбой найти и наказать недоброжелателей, опорочивших его имя. Помогать Пегги будет дворецкий Говард Джарвис, обязанный выполнять любую просьбу своей временной начальницы. Благодаря новому заданию секретный агент Картер сможет трудиться в полную силу, параллельно заглушая терзающую ее боль и доказывая окружающим, что женщины тоже имеют право на карьеру и самореализацию.
Однако есть одно «но»... Если кто-то узнает о секретной миссии Пегги, она проведет остаток жизни в тюрьме как изменница родины или даже столкнется с гораздо более серьезными последствиями...


Рейтинг:


Видео: 1024х576 (16:9), 23,976 fps, AVC (х264), , ~1949 Kbps avg, 0.138 bit/pixel
Аудио: 48.0 kHz, AC3 Dolby Digital, 6 channels (Front: L C R, Side: L R, LFE), ~384 kbps avg

Доп. информация: звук перевода и оригинальная дорожка Dolby Digital 5.1
Полноэкранное изображение (16:9) без "черных" полос. Рип с WEB-DL 1080р. Автор рипа: Д.И.С. Релиз группы:

    Общее
    Уникальный идентификатор : 220420120628088405583324597100809240967 (0xA5D35EFE339A6B248AE7CB91C8B74187)
    Полное имя : D:\Video\Torrent\DVD Rip\Фильмы\Боевик\agent_karter_s02_rip_DIS_[tfile.me]\agent_karter_s02e01_rip_DIS_[tfile.me].mkv
    Формат : Matroska
    Версия формата : Version 2
    Размер файла : 723 Мбайт
    Продолжительность : 42 м.
    Режим общего битрейта : Переменный
    Общий поток : 2381 Кбит/сек
    Дата кодирования : UTC 2016-01-21 17:49:11 / UTC 2016-01-21 17:49:11
    Программа кодирования : Lavf54.63.104
    Библиотека кодирования : Lavf54.63.104 / Lavf54.63.104

    Видео
    Идентификатор : 1
    Формат : AVC
    Формат/Информация : Advanced Video Codec
    Профиль формата :
    Параметр CABAC формата : Да
    Параметр ReFrames формата : 1 кадр
    Параметр GOP формата : M=1, N=15
    Идентификатор кодека : V_MPEG4/ISO/AVC
    Продолжительность : 42 м.
    Вид битрейта : Переменный
    Битрейт : 1949 Кбит/сек
    Максимальный битрейт : 6000 Кбит/сек
    Ширина : 1024 пикселя
    Высота : 576 пикселей
    Соотношение сторон : 16:9
    Режим частоты кадров : Постоянный
    Частота кадров : 23,976 (24000/1001) кадра/сек
    Цветовое пространство : YUV
    Субдискретизация насыщенности : 4:2:0
    Битовая глубина : 8 бит
    Тип развёртки : Прогрессивная
    Бит/(Пиксели*Кадры) : 0.138
    Размер потока : 592 Мбайт (82%)
    Default : Да
    Forced : Нет

    Аудио
    Идентификатор : 2
    Формат : AC-3
    Формат/Информация : Audio Coding 3
    Расширение режима : CM (complete main)
    Параметр Endianness формата : Big
    Идентификатор кодека : A_AC3
    Продолжительность : 42 м.
    Вид битрейта : Постоянный
    Битрейт : 384 Кбит/сек
    Каналы : 6 каналов
    Расположение каналов : Front: L C R, Side: L R, LFE
    Частота : 48,0 КГц
    Частота кадров : 31,250 кадров/сек (1536 spf)
    Битовая глубина : 16 бит
    Метод сжатия : С потерями
    Размер потока : 117 Мбайт (16%)
    Default : Да
    Forced : Нет


При каждом добавлении новой серии создается новый торрент-файл. Чтобы начать докачку новой серии, пользователям необходимо сделать следующее:
(1) остановить скачивание
(2) удалить старый торрент у себя из клиента (старые серии удалять не надо)
(3) скачать новый торрент и запустить его у себя в клиенте вместо старого, при этом указать клиенту путь в старую папку куда и должно происходить скачивание новых серий.

Ваша программа (например UTorrent) при этом должна произвести хеширование (проверку) старой папки (если не производит сама - помогите ему сделать это), и будет докачивать только те серии которых у вас ещё нет. Старые серии при этом не удаляются, а продолжают раздаваться (Важно!)

Eсли вы уже удалили старые серии, то предотвратить повторную закачку старых серий можно, отжав галочку в соответствующих местах при запуске нового торрента. По возможности, желательно не удалять старые серии как можно дольше, чтобы релизёр не столько продолжал раздавать старые серии, а смог сконцентрироваться на новых















   Похожие торренты   Торрент   Размер 
В этой теме нет новых непрочитанных сообщений. Агент Картер, 2 сезон 1-3 серии из 10 / Agent Carter [LostFilm] (Стивен Крегг, Луис Д’Эспозито, Питер Лето) [2016, фантастика, боевик, приключения, WEB-DLRip, P]

227 | 265

1.47 ГБ

В этой теме нет новых непрочитанных сообщений. Агент Картер, 2 сезон 1-4 серии из 10 / Agent Carter [LostFilm] (Стивен Крегг, Луис Д’Эспозито, Питер Лето) [2016, фантастика, боевик, приключения, WEB-DLRip, P]

276 | 228

1.96 ГБ

В этой теме нет новых непрочитанных сообщений. Агент Картер, 2 сезон 1-4 серии из 10 / Agent Carter [LostFilm] (Стивен Крегг, Луис Д’Эспозито, Питер Лето) [2016, фантастика, боевик, приключения, WEB-DLRip-AVC, P]

16 | 7

2.85 ГБ

В этой теме нет новых непрочитанных сообщений. Агент Картер, 2 сезон 1-2 серии из 10 / Agent Carter [LostFilm] (Стивен Крегг, Луис Д’Эспозито, Питер Лето) [2016, фантастика, боевик, приключения, WEB-DLRip-AVC, P]

5 | 1

1.42 ГБ

В этой теме нет новых непрочитанных сообщений. Агент Картер / Agent Carter [S02] (2016) WEB-DLRip | КПК | LostFilm

51 | 9

1.88 ГБ

В этой теме нет новых непрочитанных сообщений. Агент Картер / Agent Carter [S02] (2016) WEB-DLRip от Scarabey | LostFilm

108 | 82

7.81 ГБ

В этой теме нет новых непрочитанных сообщений. Агент Картер / Agent Carter [02x01 из 10] (2016) WEB-DLRip | КПК | LostFilm

35 | 23

386.26 МБ




Вы не можете начинать темы
Вы не можете отвечать на сообщения
Вы не можете редактировать свои сообщения
Вы не можете удалять свои сообщения
Вы не можете добавлять вложения

Перейти:  
Для Мосгорсуда, Роскомнадзора и рекламодателей: mosgorsud-torrent[собачка]yandex.ru
 Вход
ppkBB3cker v.2 © 2008-2014 @ PPK
[ Time : 0.025s | 16 Queries | GZIP : Off ]

Торрент трекер RUTOR.IN, Не можете зайти на rutor.org? Какой новый адрес рутор? Какое зеркало рутор? Не работает rutor.org и зеркала? Тогда наш торрент специально для вас. Rutor.in неофициальное зеркало rutor. В случае если у Вас заблокирован rutor или вдруг Вы не можете на него зайти, то Вы без труда сможете скачать бесплатно и без рекламы последние новинки кино, игр, сериалов и прочего у нас, на Rutor.in. Не нужно использовать прокси, чтобы зайти на рутор, достаточно воспользоваться нашим ресурсом. Все новые фильмы, игры, сериалы, книги и музыка за 2013 и 2014 годы через торрент бесплатно. Скачивайте фильмы в хорошем качестве, игры для пк, xbox, playstation без регистрации. У нас вы найдете новые Зарубежные сериалы и Русские сериалы 2013, 2014, 2015 годов. Оставайтесь с нами, качайте любимые фильмы, игры, сериалы, книги и музыку.
cron