img image001 image001 image001 image001 image001 image001 image001 image001 image001 image001 image001 image001 image001 image001 image001

Planets Sun Sun Sun
Статистика раздачи
Автор: Nickolas3434 | Размер: 398.53 МБ | Добавлен: 03 фев 2016, 02:16
Раздают: 37    Качают: 7
Скачать торрент
Скачать торрент
Описание торрента

СообщениеДобавлено: 03 фев 2016, 02:16 

• Секретные материалы / The X-Files •

Страна: США
Производство: 20th Century Fox Television, Ten Thirteen Productions

Год выпуска: 2016
Жанр: фантастика, триллер, драма, детектив
Режиссёр: Крис Картер, Джеймс Вонг
В ролях: Дэвид Духовны, Джиллиан Андерсон, Уильям Б. Дэвис, Митч Пилледжи, Робби Амелл, Том Брэйдвуд, Дин Хэглунд, Брюс Харвуд, Джоэл МакХэйл, Лорен Эмброуз и др.
Перевод: Профессиональный (многоголосый, закадровый от Lostfilm)
Описание: В новых сериях агентам Дане Скалли и Фоксу Малдеру, которые давно не работают вместе, придется бросить все свои дела и вновь объединиться для расследования очередной запутанной загадки, связанной с правительственным заговором.
О том, что канал Fox решил заказать еще шесть эпизодов к уже вышедшим девяти сезонам The X Files, стало известно этой весной. Продюсерами проекта выступили Дана Уолден и Гари Ньюман, работавшие над оригинальным шоу, а помогал им создатель сверхъестественной драмы — Крис Картер


Качество: WEB-DLRip
Продолжительность: по ~ 00:45:00
Формат: MP4
Видео кодек: H.264
Аудио кодек: AAC-LC
Свойства видео: 640x360 (16:9), 23.976 fps, 500 kbps (0.091 bit/pixel)
Свойства аудио: 48.0 KHz, 2 ch, 128 kbps
General
Complete name : C:UsersVitasVideosThe.X-Files.10.2016.WEB-DLRipThe.X-Files.S10E01.WEB-DLRip.rus.LostFilm.mp4
Format : MPEG-4
Format profile : Base Media
Codec ID : isom (isom/avc1/iso6)
File size : 199 MiB
Duration : 44mn 6s
Overall bit rate mode : Variable
Overall bit rate : 632 Kbps
Encoded date : UTC 2016-02-02 16:53:13
Tagged date : UTC 2016-02-02 16:53:13
Video
ID : 1
Format : AVC
Format/Info : Advanced Video Codec
Format profile : High@L4.1
Format settings, CABAC : Yes
Format settings, ReFrames : 9 frames
Codec ID : avc1
Codec ID/Info : Advanced Video Coding
Duration : 44mn 6s
Bit rate : 500 Kbps
Maximum bit rate : 1 890 Kbps
Width : 640 pixels
Height : 360 pixels
Display aspect ratio : 16:9
Frame rate mode : Constant
Frame rate : 23.976 (24000/1001) fps
Color space : YUV
Chroma subsampling : 4:2:0
Bit depth : 8 bits
Scan type : Progressive
Bits/(Pixel*Frame) : 0.091
Stream size : 158 MiB (79%)
Title : 264@GPAC0.5.2-DEV-rev248-g39d5978-master
Writing library : x264 core 146 r2538 121396c
Encoding settings : cabac=1 / ref=9 / deblock=1:-3:-3 / analyse=0x3:0x113 / me=umh / subme=11 / psy=1 / psy_rd=1.00:0.00 / mixed_ref=1 / me_range=32 / chroma_me=1 / trellis=2 / 8x8dct=1 / cqm=0 / deadzone=21,11 / fast_pskip=0 / chroma_qp_offset=-2 / threads=6 / lookahead_threads=1 / sliced_threads=0 / nr=0 / decimate=0 / interlaced=0 / bluray_compat=0 / constrained_intra=0 / bframes=9 / b_pyramid=2 / b_adapt=2 / b_bias=0 / direct=3 / weightb=1 / open_gop=0 / weightp=2 / keyint=240 / keyint_min=23 / scenecut=40 / intra_refresh=0 / rc=2pass / mbtree=0 / bitrate=500 / ratetol=1.0 / qcomp=0.60 / qpmin=0 / qpmax=69 / qpstep=4 / cplxblur=20.0 / qblur=0.5 / ip_ratio=1.40 / pb_ratio=1.30 / aq=1:1.00
Encoded date : UTC 2016-02-02 16:53:13
Tagged date : UTC 2016-02-02 16:53:24
Audio
ID : 2
Format : AAC
Format/Info : Advanced Audio Codec
Format profile : LC
Codec ID : 40
Duration : 44mn 6s
Bit rate mode : Variable
Bit rate : 128 Kbps
Maximum bit rate : 155 Kbps
Channel(s) : 2 channels
Channel positions : Front: L R
Sampling rate : 48.0 KHz
Frame rate : 46.875 fps (1024 spf)
Compression mode : Lossy
Stream size : 40.3 MiB (20%)
Encoded date : UTC 2016-02-02 15:24:15
Tagged date : UTC 2016-02-02 16:53:24



   Похожие торренты   Торрент   Размер 
В этой теме нет новых непрочитанных сообщений. Секретные материалы / The X-Files [10x01-02 из 06] (2016) WEB-DLRip-AVC | Jaskier

210 | 38

1.13 ГБ

В этой теме нет новых непрочитанных сообщений. Секретные материалы / The X-Files [10x01-05 из 06] (2016) WEB-DLRip от HamsterStudio | L

59 | 87

2.12 ГБ

В этой теме нет новых непрочитанных сообщений. Секретные материалы / The X Files [10x01-04 из 06] (2016) WEB-DLRip от Twi7ter | TB3

528 | 1296

2.93 ГБ

В этой теме нет новых непрочитанных сообщений. Секретные материалы / The X-Files [10x01-04 из 06] (2016) WEB-DLRip от HamsterStudio | L

63 | 47

1.7 ГБ

В этой теме нет новых непрочитанных сообщений. Секретные материалы / The X Files [10x01-03 из 06] (2016) WEB-DLRip от Twi7ter | TB3

478 | 628

2.19 ГБ

В этой теме нет новых непрочитанных сообщений. Секретные материалы / The X-Files [10x01-03 из 06] (2016) WEB-DLRip от HamsterStudio

49 | 37

1.27 ГБ

В этой теме нет новых непрочитанных сообщений. Секретные материалы / The X-Files [10x01-02 из 06] (2016) WEB-DLRip | OMSKBIRD records

130 | 46

1.76 ГБ




Вы не можете начинать темы
Вы не можете отвечать на сообщения
Вы не можете редактировать свои сообщения
Вы не можете удалять свои сообщения
Вы не можете добавлять вложения

Перейти:  
Для Мосгорсуда, Роскомнадзора и рекламодателей: mosgorsud-torrent[собачка]yandex.ru
Настройки
ppkBB3cker v.2 © 2008-2014 @ PPK
[ Time : 0.019s | 15 Queries | GZIP : On ]
CGP [Extreme] output time : 0.00067s | 0 Queries | GZIP : On

Торрент трекер RUTOR.IN, Не можете зайти на rutor.org? Какой новый адрес рутор? Какое зеркало рутор? Не работает rutor.org и зеркала? Тогда наш торрент специально для вас. Rutor.in неофициальное зеркало rutor. В случае если у Вас заблокирован rutor или вдруг Вы не можете на него зайти, то Вы без труда сможете скачать бесплатно и без рекламы последние новинки кино, игр, сериалов и прочего у нас, на Rutor.in. Не нужно использовать прокси, чтобы зайти на рутор, достаточно воспользоваться нашим ресурсом. Все новые фильмы, игры, сериалы, книги и музыка за 2013 и 2014 годы через торрент бесплатно. Скачивайте фильмы в хорошем качестве, игры для пк, xbox, playstation без регистрации. У нас вы найдете новые Зарубежные сериалы и Русские сериалы 2013, 2014, 2015 годов. Оставайтесь с нами, качайте любимые фильмы, игры, сериалы, книги и музыку.