img image001 image001 image001 image001 image001 image001 image001 image001 image001 image001 image001 image001 image001 image001 image001

Planets Sun Sun Sun
Статистика раздачи
Автор: Nickolas3434 | Размер: 245.79 ГБ | Добавлен: 03 фев 2016
Раздают: 46    Качают: 99
Скачать торрент
Скачать торрент
Описание торрента

СообщениеДобавлено: 03 фев 2016 

Пуаро Агаты Кристи / Agatha Christie's Poirot (1989-2013) [S01-13] BDRip 720p
Релиз от GYN

Информация о сериале:
Название: Пуаро Агаты Кристи
Оригинальное название: Agatha Christie's Poirot
Год выхода: 1989 - 2013
Жанр: Триллер, Драма, Криминал, Детектив
Режиссёр: Эдвард Беннет / Edward Bennett, Ренни Рай / Renny Rye, Эндрю Грив / Andrew Grieve
В ролях: Дэвид Суше / David Suchet (Hercule Poirot), Хью Фрейзер / Hugh Fraser (Captain Hastings), Филип Джексон / Philip Jackson (Chief Inspector Japp), Полин Моран / Pauline Moran (Miss Lemon), Дэвид Йелленд / David Yelland (George), Ричард Бебб / Richard Bebb (Newsreader, озвучка), Зоэ Уонамейкер / Zoe Wanamaker (Ariadne Oliver), Джордж Литтл / George Little (Dicker, озвучка), Тони Ред Ричардс / Tony Red Richards (Hotel Guest), Лоуренс Ричардсон / Laurence Richardson (Golfer), Филип Маникам / Phillip Manikum (Sergeant), Джона Джонс / Jona Jones (Police Constable), Николас Фэррел / Nicholas Farrell (Donald Fraser), Барбара Барнс / Barbara Barnes (Louise Leidner), Джон Карсон / John Carson (Richard Abernethie), Ричард Хоуп / Richard Hope (Spence), Ричард Дерден / Richard Durden (Dr. Pritchard), Бети Эдни / Beatie Edney (Mary Cavendish), Бет Годдар / Beth Goddard (Sister Agnieszka), Саймон Шепард / Simon Shepherd (Andrew Hall), Кэрол Макреди / Carol MacReady (Milly Croft), Джон Кординг / John Cording (Div. Insp. Jameson), Саймон Моллой / Simon Molloy (District Judge), Люси Лиманн / Lucy Liemann (Miss Burgess), Пип Торренс / Pip Torrens (Jeremy Cloade), Филип Энтони / Philip Anthony (Doctor), Тим Штерн / Tim Stern (Alf Renny), Джеффри Биверс / Geoffrey Beevers (Mr Tolliver), Катрин Расселл / Catherine Russell (Katrina Reiger), Артур Кокс / Arthur Cox (Dr. Hawker)
Сюжет:
Сериал по одноимённому циклу детективных романов Агаты Кристи о бельгийском детективе Эркюле Пуаро.

Страна: Великобритания
Продолжительность: ~ 00:50:00; ~ 01:40:00
Перевод: Русский профессиональный (многоголосый, закадровый)
Субтитры: Отсутствуют
Информация о файлах:
Качество: BDRip 720p
Файл: MKV
Кодек: MPEG-4 AVC, H264 codec
Видео:
, 4:3; 24.000 fps; ~ 5783 kbps; 0.27 bit/pixel
, 16:9; 23.976 fps; 6878-7555 kbps; 0.305-0.334 bit/pixel
Аудио:
48 kHz, AC3 Dolby Digital, 2.0 (L,R) ch, ~192.00 kbps avg
48 kHz, AC3 Dolby Digital, 3/2 (L,C,R,l,r) + LFE ch, ~384.00 kbps avg
Размер файлов: 36 x 2.18 Gb; 9 x 4.36 Gb; 25 x 5.12 Gb
Общий размер: 245.8 Gb


Общее
Уникальный идентификатор : 226032368671441006386321954786021498692 (0xAA0C402F59B65A97A7C850CC1C145F44)
Полное имя : D:BDRip от HQ-ViDEOAgatha Christie's PoirotПуаро 10_Сон.mkv
Формат : Matroska
Версия формата : Version 2
Размер файла : 2,18 Гбайт
Продолжительность : 51 м.
Режим общего битрейта : Переменный
Общий поток : 6096 Кбит/сек
Название фильма : Agatha Christie's Poirot "The Dream" (1989)
Дата кодирования : UTC 2012-06-10 09:57:35
Программа кодирования : mkvmerge v3.3.0 ('Language') built on Mar 24 2010 14:59:24
Библиотека кодирования : libebml v0.8.0 + libmatroska v0.9.0
Видео
Идентификатор : 1
Формат : AVC
Формат/Информация : Advanced Video Codec
Профиль формата : High@L4.1
Параметр CABAC формата : Да
Параметр ReFrames формата : 6 кадров
Идентификатор кодека : V_MPEG4/ISO/AVC
Продолжительность : 51 м.
Вид битрейта : Переменный
Битрейт : 5783 Кбит/сек
Максимальный битрейт : 5897 Кбит/сек
Ширина : 960 пикселей
Высота : 720 пикселей
Соотношение сторон : 4:3
Режим частоты кадров : Постоянный
Частота кадров : 24,000 кадра/сек
Цветовое пространство : YUV
Субдискретизация насыщенности : 4:2:0
Битовая глубина : 8 бит
Тип развёртки : Прогрессивная
Бит/(Пиксели*Кадры) : 0.349
Размер потока : 2,07 Гбайт (95%)
Заголовок : Encoded by GYN
Default : Да
Forced : Нет
Аудио
Идентификатор : 2
Формат : AC-3
Формат/Информация : Audio Coding 3
Расширение режима : CM (complete main)
Параметр Endianness формата : Big
Идентификатор кодека : A_AC3
Продолжительность : 51 м.
Вид битрейта : Постоянный
Битрейт : 192 Кбит/сек
Каналы : 2 канала
Расположение каналов : Front: L R
Частота : 48,0 КГц
Битовая глубина : 16 бит
Метод сжатия : С потерями
Размер потока : 70,3 Мбайт (3%)
Заголовок : MVO
Язык : Russian
Default : Да
Forced : Нет
Меню
00:00:00.000 : en:Chapter 00
00:08:55.666 : en:Chapter 01
00:17:00.916 : en:Chapter 02
00:24:28.791 : en:Chapter 03
00:36:14.458 : en:Chapter 04
General
Unique ID : 193713694054493250269849482687484035015 (0x91BBE680BA81859CAA9FCB6EAFA87FC7)
Complete name : D:Agatha.Christie's.Poirot.Seasons.7-8.RUS.BDRip.720p.h264.AC3.-GYNПуаро 46_Убийство Роджера РРєСЂРѕР№РґР°.mkv
Format : Matroska
Format version : Version 4 / Version 2
File size : 5.12 GiB
Duration : 1h 43mn
Overall bit rate mode : Variable
Overall bit rate : 7 062 Kbps
Movie name : Agatha Christie's Poirot "The Murder of Roger Ackroyd" (2000)
Encoded date : UTC 2013-10-13 18:53:19
Writing application : mkvmerge v6.4.1 ('Omega Point') built on Sep 16 2013 22:05:10
Writing library : libebml v1.3.0 + libmatroska v1.4.1
Video
ID : 1
Format : AVC
Format/Info : Advanced Video Codec
Format profile : High@L4.1
Format settings, CABAC : Yes
Format settings, ReFrames : 6 frames
Codec ID : V_MPEG4/ISO/AVC
Duration : 1h 43mn
Bit rate mode : Variable
Bit rate : 6 729 Kbps
Maximum bit rate : 6 878 Kbps
Width : 1 280 pixels
Height : 720 pixels
Display aspect ratio : 16:9
Frame rate : 23.976 fps
Color space : YUV
Chroma subsampling : 4:2:0
Bit depth : 8 bits
Scan type : Progressive
Bits/(Pixel*Frame) : 0.305
Stream size : 4.88 GiB (95%)
Title : Encoded by GYN
Default : Yes
Forced : No
Audio
ID : 2
Format : AC-3
Format/Info : Audio Coding 3
Format profile : Dolby Digital
Mode extension : CM (complete main)
Codec ID : A_AC3
Duration : 1h 43mn
Bit rate mode : Constant
Bit rate : 192 Kbps
Channel(s) : 2 channels
Channel positions : Front: L R
Sampling rate : 48.0 KHz
Bit depth : 16 bits
Compression mode : Lossy
Stream size : 143 MiB (3%)
Title : MVO
Language : Russian
Default : Yes
Forced : No
Menu
00:00:00.000 : en:Chapter 01
00:10:17.908 : en:Chapter 02
00:19:07.396 : en:Chapter 03
00:29:02.198 : en:Chapter 04
00:37:24.492 : en:Chapter 05
00:50:33.739 : en:Chapter 06
01:01:09.165 : en:Chapter 07
01:10:59.255 : en:Chapter 08
01:18:10.852 : en:Chapter 09
01:28:08.533 : en:Chapter 10
01:43:48.138 : en:Chapter 11
General
Unique ID : 209300115271747673044137676936358630240 (0x9D75BC66568F8AE7A7BC8261E03B9360)
Complete name : E:Agatha.Christie's.Poirot.Seasons.9.RUS.BDRip.720p.h264.AC3.-GYNПуаро 52_Смерть на Ниле.mkv
Format : Matroska
Format version : Version 4 / Version 2
File size : 5.12 GiB
Duration : 1h 41mn
Overall bit rate mode : Variable
Overall bit rate : 7 210 Kbps
Movie name : Agatha Christie's Poirot "Death on the Nile" (2004)
Encoded date : UTC 2014-02-25 10:08:33
Writing application : mkvmerge v6.6.0 ('The Edge Of The In Between') built on Dec 1 2013 17:55:00
Writing library : libebml v1.3.0 + libmatroska v1.4.1
Video
ID : 1
Format : AVC
Format/Info : Advanced Video Codec
Format profile : High@L4.1
Format settings, CABAC : Yes
Format settings, ReFrames : 6 frames
Codec ID : V_MPEG4/ISO/AVC
Duration : 1h 41mn
Bit rate mode : Variable
Bit rate : 6 875 Kbps
Maximum bit rate : 7 031 Kbps
Width : 1 280 pixels
Height : 720 pixels
Display aspect ratio : 16:9
Frame rate : 23.976 fps
Color space : YUV
Chroma subsampling : 4:2:0
Bit depth : 8 bits
Scan type : Progressive
Bits/(Pixel*Frame) : 0.311
Stream size : 4.88 GiB (95%)
Title : Encoded by GYN
Default : Yes
Forced : No
Audio
ID : 2
Format : AC-3
Format/Info : Audio Coding 3
Mode extension : CM (complete main)
Codec ID : A_AC3
Duration : 1h 41mn
Bit rate mode : Constant
Bit rate : 192 Kbps
Channel(s) : 2 channels
Channel positions : Front: L R
Sampling rate : 48.0 KHz
Bit depth : 16 bits
Compression mode : Lossy
Stream size : 140 MiB (3%)
Title : MVO
Language : Russian
Default : Yes
Forced : No
Menu
00:00:00.000 : en:Chapter 00 / en:Chapter 01
00:10:09.442 : en:Chapter 02
00:18:49.920 : en:Chapter 03
00:29:41.655 : en:Chapter 04
00:37:08.184 : en:Chapter 05
00:47:32.683 : en:Chapter 06
00:56:53.576 : en:Chapter 07
01:09:52.730 : en:Chapter 08
01:17:52.292 : en:Chapter 09
01:26:11.499 : en:Chapter 10
General
Unique ID : 222755879190130759360689782104128570333 (0xA79538C8050897818B994F056C0143DD)
Complete name : C:Agatha.Christie's.Poirot.Season.12.RUS.BDRip.720p.h264.AC3.-GYNПуаро 64_Вечеринка в Хэллоуин.mkv
Format : Matroska
Format version : Version 4 / Version 2
File size : 5.12 GiB
Duration : 1h 32mn
Overall bit rate mode : Variable
Overall bit rate : 7 922 Kbps
Movie name : Agatha Christie's Poirot "Hallowe'en Party" (2010)
Encoded date : UTC 2013-10-18 05:12:02
Writing application : mkvmerge v6.4.1 ('Omega Point') built on Sep 16 2013 22:05:10
Writing library : libebml v1.3.0 + libmatroska v1.4.1
Video
ID : 1
Format : AVC
Format/Info : Advanced Video Codec
Format profile : High@L4.1
Format settings, CABAC : Yes
Format settings, ReFrames : 6 frames
Codec ID : V_MPEG4/ISO/AVC
Duration : 1h 32mn
Bit rate mode : Variable
Bit rate : 7 380 Kbps
Maximum bit rate : 7 555 Kbps
Width : 1 280 pixels
Height : 720 pixels
Display aspect ratio : 16:9
Frame rate : 23.976 fps
Color space : YUV
Chroma subsampling : 4:2:0
Bit depth : 8 bits
Scan type : Progressive
Bits/(Pixel*Frame) : 0.334
Stream size : 4.77 GiB (93%)
Title : Encoded by GYN
Default : Yes
Forced : No
Audio
ID : 2
Format : AC-3
Format/Info : Audio Coding 3
Mode extension : CM (complete main)
Codec ID : A_AC3
Duration : 1h 32mn
Bit rate mode : Constant
Bit rate : 384 Kbps
Channel(s) : 6 channels
Channel positions : Front: L C R, Side: L R, LFE
Sampling rate : 48.0 KHz
Bit depth : 16 bits
Compression mode : Lossy
Stream size : 254 MiB (5%)
Title : MVO
Language : Russian
Default : Yes
Forced : No
Menu
00:00:00.000 : en:Chapter 01
00:09:35.408 : en:Chapter 02
00:16:25.275 : en:Chapter 03
00:22:49.785 : en:Chapter 04
00:28:47.726 : en:Chapter 05
00:38:07.076 : en:Chapter 06
00:42:47.982 : en:Chapter 07
00:48:56.099 : en:Chapter 08
00:55:53.141 : en:Chapter 09
01:04:51.304 : en:Chapter 10
01:15:09.129 : en:Chapter 11
01:29:05.381 : en:Chapter 12

ПРИЯТНОГО ПРОСМОТРА!



   Похожие торренты   Торрент   Размер 
В этой теме нет новых непрочитанных сообщений. Пуаро Агаты Кристи / Agatha Christie's Poirot [S01-13] (1989-2013) BDRip

193 | 218

71.21 ГБ

В этой теме нет новых непрочитанных сообщений. Пуаро Агаты Кристи / Agatha Christie`s Poirot [S01-06] (1989-1996) BDRip 720p от GYN

28 | 43

117.76 ГБ

В этой теме нет новых непрочитанных сообщений. Пуаро Агаты Кристи / Agatha Christie's Poirot [S01] (1989) BDRip-AVC от MediaClub | P

152 | 85

13.51 ГБ

В этой теме нет новых непрочитанных сообщений. Пуаро Агаты Кристи / Agatha Christie's Poirot [S01] (1989) BDRip 1080p | waPBX

54 | 43

40.55 ГБ

В этой теме нет новых непрочитанных сообщений. Пуаро Агаты Кристи / Agatha Christie's Poirot [S01-S11] (1989-2008) DVDRip

60 | 62

59.37 ГБ

В этой теме нет новых непрочитанных сообщений. Пуаро Агаты Кристи / Agatha Christie`s Poirot [S01-12] (1989-2010) DVDRip

23 | 46

190.8 ГБ

В этой теме нет новых непрочитанных сообщений. Пуаро Агаты Кристи / Agatha Christie's Poirot [S13] (2013) BDRip-AVC 720p от waPBX | 50 fps

78 | 8

6.84 ГБ




Вы не можете начинать темы
Вы не можете отвечать на сообщения
Вы не можете редактировать свои сообщения
Вы не можете удалять свои сообщения
Вы не можете добавлять вложения

Перейти:  
Для Мосгорсуда, Роскомнадзора и рекламодателей: mosgorsud-torrent[собачка]yandex.ru
 Вход
ppkBB3cker v.2 © 2008-2014 @ PPK
[ Time : 0.054s | 14 Queries | GZIP : On ]

Торрент трекер RUTOR.IN, Не можете зайти на rutor.org? Какой новый адрес рутор? Какое зеркало рутор? Не работает rutor.org и зеркала? Тогда наш торрент специально для вас. Rutor.in неофициальное зеркало rutor. В случае если у Вас заблокирован rutor или вдруг Вы не можете на него зайти, то Вы без труда сможете скачать бесплатно и без рекламы последние новинки кино, игр, сериалов и прочего у нас, на Rutor.in. Не нужно использовать прокси, чтобы зайти на рутор, достаточно воспользоваться нашим ресурсом. Все новые фильмы, игры, сериалы, книги и музыка за 2013 и 2014 годы через торрент бесплатно. Скачивайте фильмы в хорошем качестве, игры для пк, xbox, playstation без регистрации. У нас вы найдете новые Зарубежные сериалы и Русские сериалы 2013, 2014, 2015 годов. Оставайтесь с нами, качайте любимые фильмы, игры, сериалы, книги и музыку.