img image001 image001 image001 image001 image001 image001 image001 image001 image001 image001 image001 image001 image001 image001 image001

Planets Sun Sun Sun
Статистика раздачи
Автор: Nickolas3434 | Размер: 4.36 ГБ | Добавлен: 04 фев 2016
Раздают: 147    Качают: 34
Скачать торрент
Скачать торрент
Описание торрента

СообщениеДобавлено: 04 фев 2016 


Информация о фильме
Оригинальное название: На глубине
Год выхода: 2015
Жанр: Криминал
Режиссер: Ярослав Мочалов
В ролях: Алексей Гуськов, Дмитрий Ратомский, Полина Сидихина, Михаил Бабичев, Виктория Герасимова, Игорь Бочкин, Василий Бочкарёв, Олег Тактаров, Игорь Савочкин, Сергей Астахов, Юрий Сафаров, Михаил Вологдин, Олег Васильков, Сергей Быстрицкий, Михаил Полицеймако, Алексей Фатеев, Илья Исаев, Эдуард Османов, Олег Чевелёв, Лариса Домаскина, Сослан Фидаров, Алексей Ошурков, Иван Мамонов, Александр Аноприков, Владимир Чуприков, Андрей Бархударов, Алексей Огурцов, Андрей Феськов, Андрей Сорока, Дмитрий Бедерин, Татьяна Демидова, Владимир Шульга, Михаил Солодко, Сергей Карякин, Игорь Огурцов, Олег Сурнов, Ольга Аксёнова, Дмитрий Блажко, Константин Тополага, Сергей Легостаев, Роман Фролов, Ричард Бондарев, Александр Голубков (II), Денис Давыдов, Сергей Беляев, Денис Бобышев, Алайбек Тойчубеков, Виктория Лукина, Игорь Волокитин, Андрей Ташков, Константин Игнатьев (II), Дмитрий Муляр, Евгения Бордзиловская
О фильме:
Одна из специальных групп полицейских под прикрытием занимается поиском особо опасных преступников. Возглавляет группу харизматичный майор Жур (Алексей Гуськов). Характер у него строптивый, начальство его терпеть не может за прямоту и зачастую неординарные действия по обезвреживанию бандитов. К себе в команду майор взял троих: Селима (Михаил Бабичев), Дениса Крылова (Дмитрий Ратомский) — и Алову (Полина Сидихина), которую буквально «вытащил из-под земли» — раньше она работала в УВД при метрополитене. Отряд должен будет выйти на торговцев оружием, для чего Селиму придется сыграть роль одного из заказчиков. Для успешного расследования дела о похищении людей самому Журу нужно будет «подставиться», чтобы попасть в плен к банде, которая удерживает заложника. Нелегкая роль в одной из операций по поиску наркоторговцев ждет и Алову, до работы в органах сталкивавшуюся с наркозависимостью. А внедрение в банду торговцев алмазами станет непростым испытанием для Дениса из-за дружеских отношений с одним из преступников, переступить через которые окажется не так просто.
Страна: Россия
Студия: "Про-Синема продакшн" и "НТВ-Кино" по заказу НТВ
Продолжительность: 12 x ~ 00:45:00
Перевод: Не требуется
Файл
Кодек: XviD
Качество: HDTVRip
Видео: 656x368 (16:9), 25 fps, XviD ~ 1020 kbps avg, 0.170 bit/pixel
Звук: 48 kHz, MP3, 2 ch, 128 kbps avg
Полное имя : Na.glubine.2015.XviD.HDTVRip.by.GeneralFilm�1.serija.avi
Формат : AVI
Формат/Информация : Audio Video Interleave
Размер файла : 372 Мбайт
Продолжительность : 44 м.
Общий поток : 1162 Кбит/сек
Программа кодирования : VirtualDubMod 1.5.10.3 | www.virtualdub-fr.org || (build 2550/release)
Библиотека кодирования : VirtualDubMod build 2550/release
Видео
Идентификатор : 0
Формат : MPEG-4 Visual
Профиль формата : Advanced Simple@L5
Параметр BVOP формата : 1
Параметр QPel формата : Нет
Параметр GMC формата : Без точки перехода
Параметр матрицы формата : Выборочная
Идентификатор кодека : XVID
Идентификатор кодека/Подсказка : XviD
Продолжительность : 44 м.
Битрейт : 1024 Кбит/сек
Ширина : 656 пикселей
Высота : 368 пикселей
Соотношение сторон : 16:9
Частота кадров : 25,000 кадров/сек
Цветовое пространство : YUV
Субдискретизация насыщенности : 4:2:0
Битовая глубина : 8 бит
Тип развёртки : Прогрессивная
Метод сжатия : С потерями
Бит/(Пиксели*Кадры) : 0.170
Размер потока : 328 Мбайт (88%)
Библиотека кодирования : XviD 73
Аудио
Идентификатор : 1
Формат : MPEG Audio
Версия формата : Version 1
Профиль формата : Layer 3
Идентификатор кодека : 55
Идентификатор кодека/Подсказка : MP3
Продолжительность : 44 м.
Вид битрейта : Постоянный
Битрейт : 128 Кбит/сек
Каналы : 2 канала
Частота : 48,0 КГц
Метод сжатия : С потерями
Размер потока : 41,0 Мбайт (11%)
Выравнивание : Соединение по промежуткам
Продолжительность промежутка : 40 мс. (1,00 видеокадр)
Время предзагрузки промежутка : 504 мс.
Библиотека кодирования : LAME3.99r
Настройки программы : -m s -V 4 -q 0 -lowpass 17 -b 128





Релиз от:
Исходник 1080i:



   Похожие торренты   Торрент   Размер 
В этой теме нет новых непрочитанных сообщений. На глубине [01-16 из 16] (2015) HDTVRip от GeneralFilm

1383 | 687

5.81 ГБ

В этой теме нет новых непрочитанных сообщений. На глубине [01-14 из 24] (2015) HDTVRip от GeneralFilm

433 | 45

5.08 ГБ

В этой теме нет новых непрочитанных сообщений. На глубине [01-08 из 24] (2015) HDTVRip от GeneralFilm

165 | 21

2.9 ГБ

В этой теме нет новых непрочитанных сообщений. На глубине [01-10 из 24] (2015) HDTVRip от GeneralFilm

406 | 9

3.63 ГБ

В этой теме нет новых непрочитанных сообщений. На глубине [01-08 из 24] (2015) HDTVRip-AVC от Files-x

496 | 192

5.47 ГБ

В этой теме нет новых непрочитанных сообщений. На глубине [01-08 из 24] (2015) HDTVRip от Files-x

1564 | 533

4.3 ГБ

В этой теме нет новых непрочитанных сообщений. На глубине [01-08 из 24] (2015) HDTVRip 720p от MediaClub

528 | 179

12.45 ГБ




Вы не можете начинать темы
Вы не можете отвечать на сообщения
Вы не можете редактировать свои сообщения
Вы не можете удалять свои сообщения
Вы не можете добавлять вложения

Перейти:  
Для Мосгорсуда, Роскомнадзора и рекламодателей: mosgorsud-torrent[собачка]yandex.ru
 Вход
ppkBB3cker v.2 © 2008-2014 @ PPK
[ Time : 0.041s | 14 Queries | GZIP : On ]

Торрент трекер RUTOR.IN, Не можете зайти на rutor.org? Какой новый адрес рутор? Какое зеркало рутор? Не работает rutor.org и зеркала? Тогда наш торрент специально для вас. Rutor.in неофициальное зеркало rutor. В случае если у Вас заблокирован rutor или вдруг Вы не можете на него зайти, то Вы без труда сможете скачать бесплатно и без рекламы последние новинки кино, игр, сериалов и прочего у нас, на Rutor.in. Не нужно использовать прокси, чтобы зайти на рутор, достаточно воспользоваться нашим ресурсом. Все новые фильмы, игры, сериалы, книги и музыка за 2013 и 2014 годы через торрент бесплатно. Скачивайте фильмы в хорошем качестве, игры для пк, xbox, playstation без регистрации. У нас вы найдете новые Зарубежные сериалы и Русские сериалы 2013, 2014, 2015 годов. Оставайтесь с нами, качайте любимые фильмы, игры, сериалы, книги и музыку.