img image001 image001 image001 image001 image001 image001 image001 image001 image001 image001 image001 image001 image001 image001 image001

Planets Sun Sun Sun
Статистика раздачи
Автор: Nickolas3434 | Размер: 15.05 ГБ | Добавлен: 09 фев 2016
Раздают: 8    Качают: 6
Скачать торрент
Скачать торрент
Описание торрента

СообщениеДобавлено: 09 фев 2016 

Сыр в мышеловке / Cheese in the Trap


Перевод: субтитры, Хардсаб: есть (встроенные субтитры)
Формат: HDTVRip, MP4, H.264, AAC
Страна: Южная Корея
Режиссер: Ли Юн Чон
Жанр: романтика, лайв-экшн, комедия, драма
Всего серий: 16
Продолжительность: 10 x 00:59:00
Год выпуска: 2016
В ролях: Ким Го Ын, Пак Хэ Чжин, Со Кан Джун, Ким Хе Чжи, Юн Чжи Вон, О Хи Джун

Описание: Хон Соль - обычная студентка. Ю Чон - самый популярный парень универа. Симпатичный, богатый, умный и вообще приятный во всех отношениях. Однако что-то смущает Хон Соль, она подозревает, что Ю Чон что-то скрывает, и он совсем не такой, каким кажется на первый взгляд... Да и он - не единственное, что не дает Соль спокойно прожить свое студенческое время: ее университет полон сумасшедших, но очень жизненных личностей, в которых Вы можете узнать кого-то, кто попадался Вам.

Рейтинг на:

Видео (1-4 серии): 1280х720 (16:9), 29,970 fps, AVC (x264), , 1980 Kbps, 0.072 bit/pixel
Видео (5-10 серии): 1280х720 (16:9), 29,970 fps, AVC, , 4100 Kbps, 0,149 bit/pixel
Аудио: 44.1 kHz, AAC LC, 2 ch, ~ 152 Kbps, корейский язык

Доп. информация: Релиз фансаб-группы Bears






[Внимание! Раздача ведётся путём добавления новых серий; при каждом добавлении создётся новый торрент. Чтобы начать докачку новой серии, пользователям необходимо сделать следующее:
(1) остановить скачивание,
(2) удалить старый торрент у себя из клиента (старые серии удалять не надо),
(3) скачать новый торрент и запустить его у себя в клиенте вместо старого, при этом указать клиенту путь в старую папку куда и должно происходить скачивание новых серий.

Ваш клиент при этом должен произвести хеширование (проверку) старой папки (если не производит сам - помогите ему сделать это), и будет докачивать только те серии которых у вас ещё нет. Старые серии при этом не удаляются, а продолжают раздаваться!

Eсли вы уже удалили старые серии, то предотвратить повторную закачку старых серий можно, отжав галочку в соответсвующих местах при запуске нового торрента. По возможности, желательно не удалять старые серии как можно дольше чтобы релизёр не столько продолжал раздавать старые серии, а смог сконцентрироваться на новых.


[Format : MPEG-4
Format profile : Base Media
Codec ID : isom
File size : 903 MiB
Duration : 58mn 59s
Overall bit rate : 2 140 Kbps
Writing application : Lavf56.25.101

Video
ID : 1
Format : AVC
Format/Info : Advanced Video Codec
Format profile :
Format settings, CABAC : Yes
Format settings, ReFrames : 4 frames
Format settings, GOP : M=4, N=30
Codec ID : avc1
Codec ID/Info : Advanced Video Coding
Duration : 58mn 59s
Duration_LastFrame : -21ms
Bit rate mode : Variable
Bit rate : 1 980 Kbps
Width : 1 280 pixels
Height : 720 pixels
Display aspect ratio : 16:9
Frame rate mode : Constant
Frame rate : 29.970 fps
Color space : YUV
Chroma subsampling : 4:2:0
Bit depth : 8 bits
Scan type : Progressive
Bits/(Pixel*Frame) : 0.072
Stream size : 835 MiB (93%)
Writing library : x264 core 142
Audio
ID : 2
Format : AAC
Format/Info : Advanced Audio Codec
Format profile : LC
Codec ID : 40
Duration : 58mn 58s
Bit rate mode : Variable
Bit rate : 152 Kbps
Maximum bit rate : 192 Kbps
Channel(s) : 2 channels
Channel positions : Front: L R
Sampling rate : 44.1 KHz
Compression mode : Lossy
Stream size : 64.1 MiB (7%)

General
Complete name : C:\Documents and Settings\Admin\Рабочий стол\Cheese_in_the_Trap_E05+%281%29(1).mp4
Format : MPEG-4
Format profile : Base Media
Codec ID : isom
File size : 1.89 GiB
Duration : 1h 1mn
Overall bit rate : 4 368 Kbps
Encoded date : UTC 2016-01-18 15:18:18
Tagged date : UTC 2016-01-18 15:18:18
Writing application : Lavf56.36.100

Video
ID : 2
Format : AVC
Format/Info : Advanced Video Codec
Format profile :
Format settings, CABAC : Yes
Format settings, ReFrames : 1 frame
Codec ID : avc1
Codec ID/Info : Advanced Video Coding
Duration : 1h 1mn
Duration_LastFrame : -2ms
Bit rate mode : Constant
Bit rate : 4 110 Kbps
Width : 1 280 pixels
Height : 720 pixels
Display aspect ratio : 16:9
Frame rate mode : Constant
Frame rate : 29.970 fps
Color space : YUV
Chroma subsampling : 4:2:0
Bit depth : 8 bits
Scan type : Progressive
Bits/(Pixel*Frame) : 0.149
Stream size : 1.78 GiB (94%)
Encoded date : UTC 2016-01-18 15:18:18
Tagged date : UTC 2016-01-18 15:18:18

Audio
ID : 1
Format : AAC
Format/Info : Advanced Audio Codec
Format profile : LC
Codec ID : 40
Duration : 1h 1mn
Bit rate mode : Constant
Bit rate : 256 Kbps
Channel(s) : 2 channels
Channel positions : Front: L R
Sampling rate : 48.0 KHz
Compression mode : Lossy
Stream size : 113 MiB (6%)
Encoded date : UTC 2016-01-18 15:18:18
Tagged date : UTC 2016-01-18 15:18:18





   Похожие торренты   Торрент   Размер 
В этой теме нет новых непрочитанных сообщений. Сыр в мышеловке, 1 сезон 1-8 серии из 16 / Cheese in the Trap (Ли Юн Чон) [2016, романтика, лайв-экшн, комедия, драма, HDTVRip 720p, SUB]

20 | 6

11.26 ГБ

В этой теме нет новых непрочитанных сообщений. Сыр в мышеловке, 1 сезон 1-6 серии из 16 / Cheese in the Trap (Ли Юн Чон) [2016, романтика, лайв-экшн, комедия, драма, HDTVRip 720p, SUB]

8 | 3

7.51 ГБ

В этой теме нет новых непрочитанных сообщений. Бешеные псы, 1 сезон 1-3 серии из 10 / Mad Dogs [NewStudio] (Чарльз МакДугалл, Ута Бризвитц, Джон Дэвид Коулз) [2016, драма, комедия, криминал, WEB-DLRip, P]

196 | 100

1.88 ГБ

В этой теме нет новых непрочитанных сообщений. Бешеные псы, 1 сезон 1-2 серии из 10 / Mad Dogs [NewStudio] (Чарльз МакДугалл, Ута Бризвитц, Джон Дэвид Коулз) [2016, драма, комедия, криминал, WEB-DLRip, P]

111 | 108

1.21 ГБ

В этой теме нет новых непрочитанных сообщений. Бешеные псы, 1 сезон 1-10 серии из 10 / Mad Dogs [NewStudio] (Чарльз МакДугалл, Ута Бризвитц, Джон Дэвид Коулз) [2016, драма, комедия, криминал, WEB-DLRip, P]

572 | 232

6.32 ГБ

В этой теме нет новых непрочитанных сообщений. Бешеные псы, 1 сезон 1-10 серии из 10 / Mad Dogs [BaibaKo] (Чарльз МакДугалл, Ута Бризвитц, Джон Дэвид Коулз) [2016, драма, комедия, криминал, WEB-DLRip, P]

147 | 36

6.69 ГБ

В этой теме нет новых непрочитанных сообщений. Бешеные псы, 1 сезон 1-3 серии из 10 / Mad Dogs [BaibaKo] (Чарльз МакДугалл, Ута Бризвитц, Джон Дэвид Коулз) [2016, драма, комедия, криминал, WEB-DLRip, P]

177 | 82

2.02 ГБ




Вы не можете начинать темы
Вы не можете отвечать на сообщения
Вы не можете редактировать свои сообщения
Вы не можете удалять свои сообщения
Вы не можете добавлять вложения

Перейти:  
Для Мосгорсуда, Роскомнадзора и рекламодателей: mosgorsud-torrent[собачка]yandex.ru
 Вход
ppkBB3cker v.2 © 2008-2014 @ PPK
[ Time : 0.035s | 15 Queries | GZIP : Off ]

Торрент трекер RUTOR.IN, Не можете зайти на rutor.org? Какой новый адрес рутор? Какое зеркало рутор? Не работает rutor.org и зеркала? Тогда наш торрент специально для вас. Rutor.in неофициальное зеркало rutor. В случае если у Вас заблокирован rutor или вдруг Вы не можете на него зайти, то Вы без труда сможете скачать бесплатно и без рекламы последние новинки кино, игр, сериалов и прочего у нас, на Rutor.in. Не нужно использовать прокси, чтобы зайти на рутор, достаточно воспользоваться нашим ресурсом. Все новые фильмы, игры, сериалы, книги и музыка за 2013 и 2014 годы через торрент бесплатно. Скачивайте фильмы в хорошем качестве, игры для пк, xbox, playstation без регистрации. У нас вы найдете новые Зарубежные сериалы и Русские сериалы 2013, 2014, 2015 годов. Оставайтесь с нами, качайте любимые фильмы, игры, сериалы, книги и музыку.