img image001 image001 image001 image001 image001 image001 image001 image001 image001 image001 image001 image001 image001 image001 image001

Planets Sun Sun Sun
Статистика раздачи
Автор: Nickolas3434 | Размер: 1.76 ГБ | Добавлен: 09 фев 2016
Раздают: 13    Качают: 2
Скачать торрент
Скачать торрент
Описание торрента

СообщениеДобавлено: 09 фев 2016 

Ангел из ада, 1 сезон 1-5 серии из 13 / Angel from Hell

«Вдохновлённая. Благословенная. Поддатая...»

Перевод: Профессиональный (многоголосый, закадровый) [NewStudio]
Cубтитры: отсутствуют
Формат: WEB-DLRip (AVC), MKV, H.264, AC3
Страна: США
Режиссер: Дон Скардино, Джей Карас
Жанр: комедия
Всего серий: 13
Продолжительность: ~ 00:25:00 серия
Год выпуска: 2016

В ролях: Брэндон Сайрус, Джейн Линч, Джинджер Гонзага, Мэгги Лосон, Дэвид Денман, Грег Кромер, Кайл Борнхаймер, Кевин Поллак, Лиза Лапира, Андреа Розен

Описание: Удивительная история о том, как ангелу-хранителю девушки Эллисон надоело молча наблюдать за тем, какие жизненные решения принимает её подопечная. Ангел является Эллисон в виде чудачки Эми и начинает активно вмешиваться во все её дела.
Эллисон никак не может понять, то ли её новая подруга сумасшедшая, то ли, в самом деле, ангел. Ведь все предсказания Эми почему-то начинают сбываться...


Рейтинг:


Видео: 1024х576 (16:9), 23,976 fps, AVC (х264), , ~1942 Kbps avg, 0.137 bit/pixel
Аудио: 48.0 KHz, AC3 Dolby Digital, 6 channels (Front: L C R, Side: L R, LFE), ~384 kbps avg

Доп. информация: звук перевода и оригинальная дорожка Dolby Digital 5.1
Полноэкранное изображение (16:9) без "черных" полос. Рип с WEB-DL 1080р. Автор рипа: Д.И.С. Релиз группы:
    Общее
    Уникальный идентификатор : 285759701838832866347755030905548043797 (0xD6FB511117A051B921922B0CA56DF615)
    Полное имя : D:\Video\...\angel_iz_ada_s01e01_rip_DIS_[tfile.me].mkv
    Формат : Matroska
    Версия формата : Version 2
    Размер файла : 361 Мбайт
    Продолжительность : 21 м.
    Режим общего битрейта : Переменный
    Общий поток : 2373 Кбит/сек
    Дата кодирования : UTC 2016-01-11 14:28:15 / UTC 2016-01-11 14:28:15
    Программа кодирования : Lavf54.63.104
    Библиотека кодирования : Lavf54.63.104 / Lavf54.63.104

    Видео
    Идентификатор : 1
    Формат : AVC
    Формат/Информация : Advanced Video Codec
    Профиль формата :
    Параметр CABAC формата : Да
    Параметр ReFrames формата : 1 кадр
    Параметр GOP формата : M=1, N=15
    Идентификатор кодека : V_MPEG4/ISO/AVC
    Продолжительность : 21 м.
    Вид битрейта : Переменный
    Битрейт : 1942 Кбит/сек
    Максимальный битрейт : 6000 Кбит/сек
    Ширина : 1024 пикселя
    Высота : 576 пикселей
    Соотношение сторон : 16:9
    Режим частоты кадров : Постоянный
    Частота кадров : 23,976 (24000/1001) кадра/сек
    Цветовое пространство : YUV
    Субдискретизация насыщенности : 4:2:0
    Битовая глубина : 8 бит
    Тип развёртки : Прогрессивная
    Бит/(Пиксели*Кадры) : 0.137
    Размер потока : 295 Мбайт (82%)
    Default : Да
    Forced : Нет

    Аудио
    Идентификатор : 2
    Формат : AC-3
    Формат/Информация : Audio Coding 3
    Расширение режима : CM (complete main)
    Параметр Endianness формата : Big
    Идентификатор кодека : A_AC3
    Продолжительность : 21 м.
    Вид битрейта : Постоянный
    Битрейт : 384 Кбит/сек
    Каналы : 6 каналов
    Расположение каналов : Front: L C R, Side: L R, LFE
    Частота : 48,0 КГц
    Частота кадров : 31,250 кадров/сек (1536 spf)
    Битовая глубина : 16 бит
    Метод сжатия : С потерями
    Размер потока : 58,4 Мбайт (16%)
    Default : Да
    Forced : Нет


При каждом добавлении новой серии создается новый торрент-файл. Чтобы начать докачку новой серии, пользователям необходимо сделать следующее:
(1) остановить скачивание
(2) удалить старый торрент у себя из клиента (старые серии удалять не надо)
(3) скачать новый торрент и запустить его у себя в клиенте вместо старого, при этом указать клиенту путь в старую папку куда и должно происходить скачивание новых серий.

Ваша программа (например UTorrent) при этом должна произвести хеширование (проверку) старой папки (если не производит сама - помогите ему сделать это), и будет докачивать только те серии которых у вас ещё нет. Старые серии при этом не удаляются, а продолжают раздаваться (Важно!)

Eсли вы уже удалили старые серии, то предотвратить повторную закачку старых серий можно, отжав галочку в соответствующих местах при запуске нового торрента. По возможности, желательно не удалять старые серии как можно дольше, чтобы релизёр не столько продолжал раздавать старые серии, а смог сконцентрироваться на новых















   Похожие торренты   Торрент   Размер 
В этой теме нет новых непрочитанных сообщений. Ангел из ада, 1 сезон 1-5 серии из 13 / Angel from Hell [NewStudio] (Дон Скардино, Джей Карас) [2016, комедия, WEB-DLRip, P]

139 | 108

1.46 ГБ

В этой теме нет новых непрочитанных сообщений. Ангел из ада, 1 сезон 1-3 серии из 13 / Angel from Hell [NewStudio] (Дон Скардино, Джей Карас) [2016, комедия, WEB-DLRip, P]

40 | 30

899.96 МБ

В этой теме нет новых непрочитанных сообщений. Ангел из ада, 1 сезон 1-3 серии из 13 / Angel from Hell [NewStudio] (Дон Скардино, Джей Карас) [2016, комедия, WEB-DLRip-AVC, P]

12 | 15

1.07 ГБ

В этой теме нет новых непрочитанных сообщений. Ангел из ада, 1 сезон 1-3 серии из 13 / Angel from Hell [NewStudio] (Дон Скардино, Джей Карас) [2016, комедия, WEB-DL 720p, P]

10 | 1

2.12 ГБ

В этой теме нет новых непрочитанных сообщений. Ангел из ада, 1 сезон 1-5 серии из 13 / Angel from Hell [NewStudio] (Дон Скардино, Джей Карас) [2016, комедия, WEB-DL 720p, P]

1 | 5

3.53 ГБ

В этой теме нет новых непрочитанных сообщений. Ангел из ада, 1 сезон 1-5 серии из 13 / Angel from Hell [NewStudio] (Дон Скардино, Джей Карас) [2016, комедия, WEB-DL 1080p, P]

52 | 26

4.28 ГБ

В этой теме нет новых непрочитанных сообщений. Ангел из ада, 1 сезон 1-3 серии из 13 / Angel from Hell [NewStudio] (Дон Скардино, Джей Карас) [2016, комедия, WEB-DL 1080p, P]

20 | 1

2.6 ГБ




Вы не можете начинать темы
Вы не можете отвечать на сообщения
Вы не можете редактировать свои сообщения
Вы не можете удалять свои сообщения
Вы не можете добавлять вложения

Перейти:  
Для Мосгорсуда, Роскомнадзора и рекламодателей: mosgorsud-torrent[собачка]yandex.ru
 Вход
ppkBB3cker v.2 © 2008-2014 @ PPK
[ Time : 0.061s | 17 Queries | GZIP : On ]

Торрент трекер RUTOR.IN, Не можете зайти на rutor.org? Какой новый адрес рутор? Какое зеркало рутор? Не работает rutor.org и зеркала? Тогда наш торрент специально для вас. Rutor.in неофициальное зеркало rutor. В случае если у Вас заблокирован rutor или вдруг Вы не можете на него зайти, то Вы без труда сможете скачать бесплатно и без рекламы последние новинки кино, игр, сериалов и прочего у нас, на Rutor.in. Не нужно использовать прокси, чтобы зайти на рутор, достаточно воспользоваться нашим ресурсом. Все новые фильмы, игры, сериалы, книги и музыка за 2013 и 2014 годы через торрент бесплатно. Скачивайте фильмы в хорошем качестве, игры для пк, xbox, playstation без регистрации. У нас вы найдете новые Зарубежные сериалы и Русские сериалы 2013, 2014, 2015 годов. Оставайтесь с нами, качайте любимые фильмы, игры, сериалы, книги и музыку.
cron