img image001 image001 image001 image001 image001 image001 image001 image001 image001 image001 image001 image001 image001 image001 image001

Planets Sun Sun Sun
Статистика раздачи
Автор: Nickolas3434 | Размер: 3.53 ГБ | Добавлен: 09 фев 2016
Раздают: 1    Качают: 5
Скачать торрент
Скачать торрент
Описание торрента

СообщениеДобавлено: 09 фев 2016 

Ангел из ада, 1 сезон 1-5 серии из 13 / Angel from Hell
Перевод: Профессиональный (многоголосый, закадровый) [NewStudio], cубтитры: отсутствуют
Формат: WEB-DL 720p, MKV, H.264, AC3
Страна: США
Режиссер: Дон Скардино, Джей Карас
Жанр: комедия
Всего серий: 13
Продолжительность: 5 x ~ 00:25:00
Год выпуска: 2016
В ролях: Джинджер Гонзага, Джейн Линч, Дэвид Денман, Грег Кромер, Мэгги Лосон, Кайл Борнхаймер, Кевин Поллак, Лиза Лапира, Андреа Розен, Кевин Кристи

Описание: Эллисон никак не может понять то ли ее новая подруга это ее ангел-хранитель, то ли она просто сумасшедшая…

Рейтинг:


Видео: 1280x720 (16:9), 23.976 fps, AVC (x264) , ~3863 kbps avg, 0.175 bit/pixel
Аудио Rus: 48 kHz, AC3 Dolby Digital, 3/2 (L,C,R,l,r) + LFE ch, ~384.00 kbps avg
Аудио Eng: 48 kHz, AC3 Dolby Digital, 3/2 (L,C,R,l,r) + LFE ch, ~384.00 kbps avg
(тех. данные серий идентичны)

Релиз:


Перевод: Юрий Башенкер

Внимание! Раздача ведётся путём добавления новых серий. При каждом добавлении создаётся новый торрент.
Чтобы начать докачку новой серии, пользователям необходимо сделать следующее:
1. Остановить скачивание.
2. Удалить старый торрент у себя из клиента (старые серии удалять не надо).
3. Скачать новый торрент и запустить его у себя в клиенте вместо старого, при этом указать клиенту путь в старую папку куда и должно происходить скачивание новых серий. Ваш клиент при этом должен произвести хеширование (проверку) старой папки и будет докачивать только те серии, которых у вас ещё нет. Старые серии при этом не удаляются, а продолжают раздаваться! Eсли вы уже удалили старые серии, то предотвратить повторную закачку старых серий можно, отжав галочку в соответствующих местах при запуске нового торрента.

General
Unique ID : 238694541292361562286642905875764204107 (0xB392E57EA4AF985E90BE5F2A82E7D24B)
Complete name : Angel.From.Hell.s01e01.WEBDL.720p.NewStudio.TV.mkv
Format : Matroska
Format version : Version 4 / Version 2
File size : 718 MiB
Duration : 21mn 14s
Overall bit rate : 4 725 Kbps
Encoded date : UTC 2016-01-11 14:27:13
Writing application : mkvmerge v8.2.0 ('World of Adventure') 64bit
Writing library : libebml v1.3.1 + libmatroska v1.4.2
DURATION : 00:21:14.976000000
NUMBER_OF_FRAMES : 39843
NUMBER_OF_BYTES : 61198848
_STATISTICS_WRITING_APP : mkvmerge v8.2.0 ('World of Adventure') 64bit
_STATISTICS_WRITING_DATE_UTC : 2016-01-11 14:27:13
_STATISTICS_TAGS : BPS DURATION NUMBER_OF_FRAMES NUMBER_OF_BYTES

Video
ID : 1
Format : AVC
Format/Info : Advanced Video Codec
Format profile :
Format settings, CABAC : No
Format settings, ReFrames : 2 frames
Codec ID : V_MPEG4/ISO/AVC
Duration : 21mn 14s
Bit rate : 3 863 Kbps
Width : 1 280 pixels
Height : 720 pixels
Display aspect ratio : 16:9
Frame rate mode : Constant
Frame rate : 23.976 fps
Color space : YUV
Chroma subsampling : 4:2:0
Bit depth : 8 bits
Scan type : Progressive
Bits/(Pixel*Frame) : 0.175
Stream size : 587 MiB (82%)
Language : English
Default : Yes
Forced : No
Color primaries : BT.709
Transfer characteristics : BT.709
Matrix coefficients : BT.709

Audio #1
ID : 2
Format : AC-3
Format/Info : Audio Coding 3
Mode extension : CM (complete main)
Format settings, Endianness : Big
Codec ID : A_AC3
Duration : 21mn 14s
Bit rate mode : Constant
Bit rate : 384 Kbps
Channel(s) : 6 channels
Channel positions : Front: L C R, Side: L R, LFE
Sampling rate : 48.0 KHz
Bit depth : 16 bits
Compression mode : Lossy
Stream size : 58.4 MiB (8%)
Language : Russian
Default : Yes
Forced : Yes

Audio #2
ID : 3
Format : AC-3
Format/Info : Audio Coding 3
Mode extension : CM (complete main)
Format settings, Endianness : Big
Codec ID : A_AC3
Duration : 21mn 14s
Bit rate mode : Constant
Bit rate : 384 Kbps
Channel(s) : 6 channels
Channel positions : Front: L C R, Side: L R, LFE
Sampling rate : 48.0 KHz
Bit depth : 16 bits
Compression mode : Lossy
Stream size : 58.4 MiB (8%)
Language : English
Default : No
Forced : No












   Похожие торренты   Торрент   Размер 
В этой теме нет новых непрочитанных сообщений. Ангел из ада, 1 сезон 1-3 серии из 13 / Angel from Hell [NewStudio] (Дон Скардино, Джей Карас) [2016, комедия, WEB-DL 720p, P]

10 | 1

2.12 ГБ

В этой теме нет новых непрочитанных сообщений. Ангел из ада, 1 сезон 1-3 серии из 13 / Angel from Hell [NewStudio] (Дон Скардино, Джей Карас) [2016, комедия, WEB-DLRip, P]

40 | 30

899.96 МБ

В этой теме нет новых непрочитанных сообщений. Ангел из ада, 1 сезон 1-3 серии из 13 / Angel from Hell [NewStudio] (Дон Скардино, Джей Карас) [2016, комедия, WEB-DLRip-AVC, P]

12 | 15

1.07 ГБ

В этой теме нет новых непрочитанных сообщений. Ангел из ада, 1 сезон 1-5 серии из 13 / Angel from Hell [NewStudio] (Дон Скардино, Джей Карас) [2016, комедия, WEB-DL 1080p, P]

52 | 26

4.28 ГБ

В этой теме нет новых непрочитанных сообщений. Ангел из ада, 1 сезон 1-5 серии из 13 / Angel from Hell [NewStudio] (Дон Скардино, Джей Карас) [2016, комедия, WEB-DLRip-AVC, P]

13 | 2

1.76 ГБ

В этой теме нет новых непрочитанных сообщений. Ангел из ада, 1 сезон 1-3 серии из 13 / Angel from Hell [NewStudio] (Дон Скардино, Джей Карас) [2016, комедия, WEB-DL 1080p, P]

20 | 1

2.6 ГБ

В этой теме нет новых непрочитанных сообщений. Ангел из ада, 1 сезон 1-5 серии из 13 / Angel from Hell [NewStudio] (Дон Скардино, Джей Карас) [2016, комедия, WEB-DLRip, P]

139 | 108

1.46 ГБ




Вы не можете начинать темы
Вы не можете отвечать на сообщения
Вы не можете редактировать свои сообщения
Вы не можете удалять свои сообщения
Вы не можете добавлять вложения

Перейти:  
Для Мосгорсуда, Роскомнадзора и рекламодателей: mosgorsud-torrent[собачка]yandex.ru
 Вход
ppkBB3cker v.2 © 2008-2014 @ PPK
[ Time : 0.047s | 16 Queries | GZIP : On ]

Торрент трекер RUTOR.IN, Не можете зайти на rutor.org? Какой новый адрес рутор? Какое зеркало рутор? Не работает rutor.org и зеркала? Тогда наш торрент специально для вас. Rutor.in неофициальное зеркало rutor. В случае если у Вас заблокирован rutor или вдруг Вы не можете на него зайти, то Вы без труда сможете скачать бесплатно и без рекламы последние новинки кино, игр, сериалов и прочего у нас, на Rutor.in. Не нужно использовать прокси, чтобы зайти на рутор, достаточно воспользоваться нашим ресурсом. Все новые фильмы, игры, сериалы, книги и музыка за 2013 и 2014 годы через торрент бесплатно. Скачивайте фильмы в хорошем качестве, игры для пк, xbox, playstation без регистрации. У нас вы найдете новые Зарубежные сериалы и Русские сериалы 2013, 2014, 2015 годов. Оставайтесь с нами, качайте любимые фильмы, игры, сериалы, книги и музыку.