img image001 image001 image001 image001 image001 image001 image001 image001 image001 image001 image001 image001 image001 image001 image001

Planets Sun Sun Sun
Статистика раздачи
Автор: Nickolas3434 | Размер: 2.89 ГБ | Добавлен: 09 фев 2016
Раздают: 6    Качают: 4
Скачать торрент
Скачать торрент
Описание торрента

СообщениеДобавлено: 09 фев 2016 

Новенькая, 5 сезон 1-4 серии из 22 / New Girl
Перевод: Профессиональный (двухголосый) [Ozz], cубтитры: Русские, английские (вшитые)
Формат: WEB-DL 720p, MKV, H.264, AC3
Страна: США
Режиссер: Джейк Кэздан
Жанр: комедия
Всего серий: 22
Продолжительность: 4 x ~ 00:24:00
Год выпуска: 2016
В ролях: Зои Дешанель, Дэймон Уайанс мл., Джейк Джонсон, Джиллиан Вигмэн, Ханна Симона, Макс Гринфилд, Мэри Элизабет Эллис, Стив Баннос, Хейли Норман, Джек Янг

Описание: Комедия о сексуальных отношениях мужчин и женщин. В центре сюжета — Джессика, оптимистичная, но несчастная в любви учительница начальной школы, которая после последнего разрыва въезжает в квартиру, где уже живут три парня.

Рейтинг:


Видео: 1280x718 (16:9), 23.976 fps, AVC (x264) , ~3839 kbps avg, 0.174 bit/pixel
Аудио Rus: 48 kHz, AC3 Dolby Digital, 3/2 (L,C,R,l,r) + LFE ch, ~384.00 kbps avg
Аудио Eng: 48 kHz, AC3 Dolby Digital, 3/2 (L,C,R,l,r) + LFE ch, ~384.00 kbps avg
(тех. данные серий идентичны)

Озвучка: Алексей Серёгин и Елена Каламурза
Перевод: Василий Мерзляков

Внимание! Раздача ведётся путём добавления новых серий. При каждом добавлении создаётся новый торрент.
Чтобы начать докачку новой серии, пользователям необходимо сделать следующее:
1. Остановить скачивание.
2. Удалить старый торрент у себя из клиента (старые серии удалять не надо).
3. Скачать новый торрент и запустить его у себя в клиенте вместо старого, при этом указать клиенту путь в старую папку куда и должно происходить скачивание новых серий. Ваш клиент при этом должен произвести хеширование (проверку) старой папки и будет докачивать только те серии, которых у вас ещё нет. Старые серии при этом не удаляются, а продолжают раздаваться! Eсли вы уже удалили старые серии, то предотвратить повторную закачку старых серий можно, отжав галочку в соответствующих местах при запуске нового торрента.

Общее
Уникальный идентификатор : 178793404832752863692150373520056428256 (0x86825B72F14DF8EE978EB8575E46A6E0)
Полное имя : New.Girl.S05.720p.WEB-DL.Rus.Eng.Ozz\New.Girl.S05E01.720p.WEB-DL.Rus.Eng.Ozz.mkv
Формат : Matroska
Версия формата : Version 4 / Version 2
Размер файла : 730 Мбайт
Продолжительность : 21 м.
Общий поток : 4700 Кбит/сек
Дата кодирования : UTC 2016-01-11 13:11:08
Программа кодирования : mkvmerge v6.3.0 ('You can't stop me!') built on Jun 28 2013 20:09:41
Библиотека кодирования : libebml v1.3.0 + libmatroska v1.4.0

Видео
Идентификатор : 1
Формат : AVC
Формат/Информация : Advanced Video Codec
Профиль формата :
Параметр CABAC формата : Нет
Параметр ReFrames формата : 2 кадра
Идентификатор кодека : V_MPEG4/ISO/AVC
Продолжительность : 21 м.
Битрейт : 3839 Кбит/сек
Ширина : 1280 пикселей
Высота : 718 пикселей
Соотношение сторон : 16:9
Режим частоты кадров : Постоянный
Частота кадров : 23,976 кадра/сек
Цветовое пространство : YUV
Субдискретизация насыщенности : 4:2:0
Битовая глубина : 8 бит
Тип развёртки : Прогрессивная
Бит/(Пиксели*Кадры) : 0.174
Размер потока : 596 Мбайт (82%)
Язык : English
Default : Да
Forced : Нет
Основные цвета : BT.709
Характеристики трансфера : BT.709
Коэффициенты матрицы : BT.709

Аудио #1
Идентификатор : 2
Формат : AC-3
Формат/Информация : Audio Coding 3
Расширение режима : CM (complete main)
Параметр Endianness формата : Big
Идентификатор кодека : A_AC3
Продолжительность : 21 м.
Вид битрейта : Постоянный
Битрейт : 384 Кбит/сек
Каналы : 6 каналов
Расположение каналов : Front: L C R, Side: L R, LFE
Частота : 48,0 КГц
Битовая глубина : 16 бит
Метод сжатия : С потерями
Размер потока : 59,7 Мбайт (8%)
Заголовок : DVO Ozz-tv
Язык : Russian
Default : Да
Forced : Нет

Аудио #2
Идентификатор : 3
Формат : AC-3
Формат/Информация : Audio Coding 3
Расширение режима : CM (complete main)
Параметр Endianness формата : Big
Идентификатор кодека : A_AC3
Продолжительность : 21 м.
Вид битрейта : Постоянный
Битрейт : 384 Кбит/сек
Каналы : 6 каналов
Расположение каналов : Front: L C R, Side: L R, LFE
Частота : 48,0 КГц
Битовая глубина : 16 бит
Метод сжатия : С потерями
Размер потока : 59,7 Мбайт (8%)
Язык : English
Default : Нет
Forced : Нет

Текст #1
Идентификатор : 4
Формат : UTF-8
Идентификатор кодека : S_TEXT/UTF8
Идентификатор кодека/Информация : UTF-8 Plain Text
Заголовок : Василий Мерзляков
Язык : Russian
Default : Нет
Forced : Нет

Текст #2
Идентификатор : 5
Формат : UTF-8
Идентификатор кодека : S_TEXT/UTF8
Идентификатор кодека/Информация : UTF-8 Plain Text
Язык : English
Default : Нет
Forced : Нет












   Похожие торренты   Торрент   Размер 
В этой теме нет новых непрочитанных сообщений. Новенькая, 5 сезон 1-4 серии из 22 / New Girl [Ozz] (Джейк Кэздан) [2016, комедия, WEB-DLRip, P2]

10 | 7

1.18 ГБ

В этой теме нет новых непрочитанных сообщений. Дробилка, 1 сезон 1-13 серии из 22 / The Grinder [NewStudio] (Джейк Кэздан, Джей Чандрашекхар, Джон Гамбург) [2015-2016, комедия, WEB-DLRip, P]

13 | 3

3.81 ГБ

В этой теме нет новых непрочитанных сообщений. Дробилка, 1 сезон 1-11 серии из 22 / The Grinder [NewStudio] (Джейк Кэздан, Джей Чандрашекхар, Джон Гамбург) [2015-2016, комедия, WEB-DLRip, P]

30 | 15

3.22 ГБ

В этой теме нет новых непрочитанных сообщений. Дробилка, 1 сезон 1-11 серии из 22 / The Grinder [NewStudio] (Джейк Кэздан) [2015, комедия, WEB-DLRip-AVC, P]

10 | 31

4.08 ГБ

В этой теме нет новых непрочитанных сообщений. Дробилка, 1 сезон 1-13 серии из 22 / The Grinder [NewStudio] (Джейк Кэздан) [2015, комедия, WEB-DLRip-AVC, P]

4 | 6

4.8 ГБ

В этой теме нет новых непрочитанных сообщений. Трудности ассимиляции / Понаехали!, 2 сезон 1-8 серии из 13 / Fresh Off the Boat [Причудики] (Линн Шелтон, Роберт Коэн, Джейк Кэздан) [2015, комедия, WEB-DLRip, L2]

1 | 4

1.98 ГБ

В этой теме нет новых непрочитанных сообщений. Ангел из ада, 1 сезон 1-5 серии из 13 / Angel from Hell [NewStudio] (Дон Скардино, Джей Карас) [2016, комедия, WEB-DL 720p, P]

1 | 5

3.53 ГБ




Вы не можете начинать темы
Вы не можете отвечать на сообщения
Вы не можете редактировать свои сообщения
Вы не можете удалять свои сообщения
Вы не можете добавлять вложения

Перейти:  
Для Мосгорсуда, Роскомнадзора и рекламодателей: mosgorsud-torrent[собачка]yandex.ru
 Вход
ppkBB3cker v.2 © 2008-2014 @ PPK
[ Time : 0.040s | 15 Queries | GZIP : On ]

Торрент трекер RUTOR.IN, Не можете зайти на rutor.org? Какой новый адрес рутор? Какое зеркало рутор? Не работает rutor.org и зеркала? Тогда наш торрент специально для вас. Rutor.in неофициальное зеркало rutor. В случае если у Вас заблокирован rutor или вдруг Вы не можете на него зайти, то Вы без труда сможете скачать бесплатно и без рекламы последние новинки кино, игр, сериалов и прочего у нас, на Rutor.in. Не нужно использовать прокси, чтобы зайти на рутор, достаточно воспользоваться нашим ресурсом. Все новые фильмы, игры, сериалы, книги и музыка за 2013 и 2014 годы через торрент бесплатно. Скачивайте фильмы в хорошем качестве, игры для пк, xbox, playstation без регистрации. У нас вы найдете новые Зарубежные сериалы и Русские сериалы 2013, 2014, 2015 годов. Оставайтесь с нами, качайте любимые фильмы, игры, сериалы, книги и музыку.