img image001 image001 image001 image001 image001 image001 image001 image001 image001 image001 image001 image001 image001 image001 image001

Planets Sun Sun Sun
Статистика раздачи
Автор: Nickolas3434 | Размер: 556.33 МБ | Добавлен: 10 фев 2016
Раздают: 31    Качают: 0
Скачать торрент
Скачать торрент
Описание торрента

СообщениеДобавлено: 10 фев 2016 


Информация о фильме
Название: Человек без прошлого
Год выхода: 2014
Жанр: Криминал, детектив
Режиссер: Эмилис Веливис
В ролях: Михаил Евланов, Дмитрий Лавров (III), Юрий Цурило, Роман Мадянов, Игорь Арташонов, Андрей Финягин, Светлана Устинова, Анна Попова, Евгений Атарик, Иван Шмаков, Александр Кузнецов, Юрий Архангельский, Юлия Такшина, Геннадий Венгеров
О фильме: Игорь Романов и Павел Грошев когда-то давно были друзьями, а сейчас оказались по разные стороны баррикад. Романов работает на крупного наркоторговца, а Грошев – опер в Госнаркоконтроле. Случайная встреча оказывается для обоих роковой. Грошев срывает Романову криминальную сделку на три миллионов долларов, но взять бывшего друга с поличным ему не удаётся. В итоге, наркотики и деньги бесследно пропадают, а Романов, тяжело раненный в голову, полностью теряет память. Наркоторговцы подозревают Романова в том, что это он украл наркотики и деньги. Грошева отстраняют от службы и обвиняют в превышении полномочий и попытке убить бывшего друга. Куда делся груз и деньги? Кто хочет убить Романова? И на кого он на самом деле работает? Бывшим друзьям, оказавшимся вне закона, приходится объединить усилия, чтобы ответить на эти вопросы.
Выпущено: Россия, Кинокомпания Платформа Кино по заказу НТВ
Продолжительность: 2 x ~ 00:44:00
Перевод: Не требуется
Файл
Качество: HDTVRip
Видео: XviD, ~ 750 Кбит/с, 656х368
Аудио: MP3, 2 ch, 128 Кбит/с
Полное имя : Chelovek.Bez.Proshlogo.2014.XviD.HDTVRip.by.GeneralFilmSerija.01.avi
Формат : AVI
Формат/Информация : Audio Video Interleave
Размер файла : 278 Мбайт
Продолжительность : 44 м.
Общий поток : 882 Кбит/сек
Программа кодирования : VirtualDubMod 1.5.10.3 | www.virtualdub-fr.org || (build 2550/release)
Библиотека кодирования : VirtualDubMod build 2550/release
Видео
Идентификатор : 0
Формат : MPEG-4 Visual
Профиль формата : Advanced Simple@L5
Параметр BVOP формата : 1
Параметр QPel формата : Нет
Параметр GMC формата : Без точки перехода
Параметр матрицы формата : Выборочная
Идентификатор кодека : XVID
Идентификатор кодека/Подсказка : XviD
Продолжительность : 44 м.
Битрейт : 744 Кбит/сек
Ширина : 656 пикселей
Высота : 368 пикселей
Соотношение сторон : 16:9
Частота кадров : 25,000 кадров/сек
Цветовое пространство : YUV
Субдискретизация насыщенности : 4:2:0
Битовая глубина : 8 бит
Тип развёртки : Прогрессивная
Метод сжатия : С потерями
Бит/(Пиксели*Кадры) : 0.123
Размер потока : 235 Мбайт (84%)
Библиотека кодирования : XviD 73
Аудио
Идентификатор : 1
Формат : MPEG Audio
Версия формата : Version 1
Профиль формата : Layer 3
Идентификатор кодека : 55
Идентификатор кодека/Подсказка : MP3
Продолжительность : 44 м.
Вид битрейта : Постоянный
Битрейт : 128 Кбит/сек
Каналы : 2 канала
Частота : 48,0 КГц
Метод сжатия : С потерями
Размер потока : 40,4 Мбайт (15%)
Выравнивание : Соединение по промежуткам
Продолжительность промежутка : 40 мс. (1,00 видеокадр)
Время предзагрузки промежутка : 504 мс.
Библиотека кодирования : LAME3.99r
Настройки программы : -m s -V 4 -q 0 -lowpass 17 -b 128








Релиз от:
Исходник 1080i:



   Похожие торренты   Торрент   Размер 
В этой теме нет новых непрочитанных сообщений. Человек без прошлого [01-04 из 16] (2014) HDTVRip от GeneralFilm

110 | 8

1.09 ГБ

В этой теме нет новых непрочитанных сообщений. Человек без прошлого [01-08 из 16] (2014) HDTVRip от GeneralFilm

352 | 89

2.17 ГБ

В этой теме нет новых непрочитанных сообщений. Человек без прошлого [01-14 из 16] (2014) HDTVRip от GeneralFilm

245 | 132

3.8 ГБ

В этой теме нет новых непрочитанных сообщений. Человек без прошлого [01-10 из 16] (2014) HDTVRip от GeneralFilm

94 | 72

2.72 ГБ

В этой теме нет новых непрочитанных сообщений. Человек без прошлого [01-12 из 16] (2014) HDTVRip от GeneralFilm

335 | 287

3.26 ГБ

В этой теме нет новых непрочитанных сообщений. Человек без прошлого [01-16 из 16] (2014) HDTVRip от GeneralFilm

1286 | 575

4.34 ГБ

В этой теме нет новых непрочитанных сообщений. Человек без прошлого [01-02 из 16] (2014) HDTVRip-AVC от Files-x

81 | 11

4.09 ГБ




Вы не можете начинать темы
Вы не можете отвечать на сообщения
Вы не можете редактировать свои сообщения
Вы не можете удалять свои сообщения
Вы не можете добавлять вложения

Перейти:  
Для Мосгорсуда, Роскомнадзора и рекламодателей: mosgorsud-torrent[собачка]yandex.ru
 Вход
ppkBB3cker v.2 © 2008-2014 @ PPK
[ Time : 0.042s | 14 Queries | GZIP : On ]

Торрент трекер RUTOR.IN, Не можете зайти на rutor.org? Какой новый адрес рутор? Какое зеркало рутор? Не работает rutor.org и зеркала? Тогда наш торрент специально для вас. Rutor.in неофициальное зеркало rutor. В случае если у Вас заблокирован rutor или вдруг Вы не можете на него зайти, то Вы без труда сможете скачать бесплатно и без рекламы последние новинки кино, игр, сериалов и прочего у нас, на Rutor.in. Не нужно использовать прокси, чтобы зайти на рутор, достаточно воспользоваться нашим ресурсом. Все новые фильмы, игры, сериалы, книги и музыка за 2013 и 2014 годы через торрент бесплатно. Скачивайте фильмы в хорошем качестве, игры для пк, xbox, playstation без регистрации. У нас вы найдете новые Зарубежные сериалы и Русские сериалы 2013, 2014, 2015 годов. Оставайтесь с нами, качайте любимые фильмы, игры, сериалы, книги и музыку.