img image001 image001 image001 image001 image001 image001 image001 image001 image001 image001 image001 image001 image001 image001 image001

Planets Sun Sun Sun
Статистика раздачи
Автор: Nickolas3434 | Размер: 5.33 ГБ | Добавлен: 13 фев 2016
Раздают: 168    Качают: 39
Скачать торрент
Скачать торрент
Описание торрента

СообщениеДобавлено: 13 фев 2016 

Страна: Россия
Производство: Триикс медиа
Жанр: боевик, криминал
Год выпуска: 2014
Продолжительность: 02:56:21 (00:43:55 + 00:44:13 + 00:43:30 + 00:44:43)
Перевод: Не требуется
Cубтитры: нет
Оригинальная аудиодорожка: русский
Режиссер: Виктор Татарский
В ролях:
Алексей Комашко, Максим Дахненко, Роман Агеев, Валерия Шкирандо, Андрей Гульнев, Игорь Павлов, Андрей Аверков, Евгений Добряков, Руслан Барабанов, Виталий Исаков, Антон Момот, Вячеслав Аркунов, Светлана Щедрина, Николай Горшков, Алексей Фокин, Дмитрий Парфёнов, Екатерина Новикова, Вероника Дмитриева, Эрик Кения, Ирина Горкунова...
Полный список актёров
Описание:
Майор Поборцев расследует дело о серии дерзких налетов на банки. В процессе расследования ему удается захватить одного из шести налетчиков. Для этого следователю приходится также дерзко нарушить инструкцию, но попытаться спасти жизнь девушки-заложницы. При задержании бандит обещает Поборцеву, что еще заставит его пожалеть. Только кто обращает внимание на угрозы задержанных преступников? Майор получает благодарность от руководства, премию на отпуск и строгий выговор за проявленную самодеятельность.
Пока его жена Наталья выбирает путевку на море и собирает чемоданы, сам Поборцев, несмотря на официальный отпуск, помогает коллегам в расследовании. Он с самого начала догадывается, что бандиты специально пустили полицию по ложному следу. Когда второй налетчик оказывается почти в руках у следователей, кто-то успевает его предупредить. О задержании, помимо Поборцева, знали пять человек. Все они теперь под подозрением, а подполковник Тепляков подозревает и самого майора. И в этот момент первый налетчик, задержанный Поборцевым, умудряется выполнить свое обещание, находясь за решеткой.
Теперь следователь вынужден пойти на обмен - ему нужно довести дело до конца, но играть придется по правилам бандитов…





Источник: HDTV 1080i
Качество видео: HDTVRip 720p
Формат видео: MKV
Видео: 1280x720 (16:9), 25 fps, H264 ~ 4142 kbps avg, 0.180 bit/pixel
Аудио: 48 kHz, Dolby Digital AC3 2.0, 192 kbps
Раздача от:
Общее
Полное имя : Obmen.2014.HDTVRip-720p_[New-team]_by_AVP_Studio\01.mkv
Формат : Matroska
Версия формата : Version 2
Размер файла : 1,33 Гбайт
Продолжительность : 43 м.
Общий поток : 4329 Кбит/сек
Дата кодирования : UTC 2016-02-11 22:32:54
Программа кодирования : mkvmerge v6.1.0 ('Old Devil') built on Mar 4 2013 09:10:42
Библиотека кодирования : libebml v1.3.0 + libmatroska v1.4.0
Видео
Идентификатор : 1
Формат : AVC
Формат/Информация : Advanced Video Codec
Профиль формата : High@L4.1
Параметр CABAC формата : Да
Параметр ReFrames формата : 8 кадров
Идентификатор кодека : V_MPEG4/ISO/AVC
Продолжительность : 43 м.
Битрейт : 4142 Кбит/сек
Ширина : 1280 пикселей
Высота : 720 пикселей
Соотношение сторон : 16:9
Режим частоты кадров : Постоянный
Частота кадров : 25,000 кадров/сек
Цветовое пространство : YUV
Субдискретизация насыщенности : 4:2:0
Битовая глубина : 8 бит
Тип развёртки : Прогрессивная
Бит/(Пиксели*Кадры) : 0.180
Размер потока : 1,24 Гбайт (94%)
Библиотека кодирования : x264 core 130 r2273 b3065e6
Настройки программы : cabac=1 / ref=8 / deblock=1:-3:-3 / analyse=0x3:0x133 / me=umh / subme=10 / psy=1 / psy_rd=1.00:0.00 / mixed_ref=1 / me_range=32 / chroma_me=1 / trellis=2 / 8x8dct=1 / cqm=0 / deadzone=21,11 / fast_pskip=1 / chroma_qp_offset=-2 / threads=6 / lookahead_threads=1 / sliced_threads=0 / nr=0 / decimate=0 / interlaced=0 / bluray_compat=0 / constrained_intra=0 / bframes=8 / b_pyramid=2 / b_adapt=2 / b_bias=0 / direct=3 / weightb=1 / open_gop=0 / weightp=2 / keyint=250 / keyint_min=25 / scenecut=40 / intra_refresh=0 / rc=2pass / mbtree=0 / bitrate=4142 / ratetol=1.0 / qcomp=0.60 / qpmin=0 / qpmax=69 / qpstep=4 / cplxblur=20.0 / qblur=0.5 / ip_ratio=1.40 / pb_ratio=1.30 / aq=1:1.00
Default : Да
Forced : Нет
Аудио
Идентификатор : 2
Формат : AC-3
Формат/Информация : Audio Coding 3
Расширение режима : CM (complete main)
Параметр Endianness формата : Big
Идентификатор кодека : A_AC3
Продолжительность : 43 м.
Вид битрейта : Постоянный
Битрейт : 192 Кбит/сек
Каналы : 2 канала
Расположение каналов : Front: L R
Частота : 48,0 КГц
Частота кадров : 31,250 кадров/сек (1536 spf)
Метод сжатия : С потерями
Размер потока : 60,3 Мбайт (4%)
Default : Да
Forced : Нет





   Похожие торренты   Торрент   Размер 
В этой теме нет новых непрочитанных сообщений. Обмен [01-04 из 04] (2014) HDTVRip от New-Team

621 | 41

2.18 ГБ

В этой теме нет новых непрочитанных сообщений. Обмен [01-04 из 04] (2014) HDTVRip-AVC от New-Team

146 | 10

3.27 ГБ

В этой теме нет новых непрочитанных сообщений. Обмен [01-04 из 04] (2014) HDTVRip 720p от MediaClub

755 | 93

7.37 ГБ

В этой теме нет новых непрочитанных сообщений. Обмен по-гангстерски / Бандитский обмен / Gangster Exchange (2010) HDRip | КПК от Generalfilm

1 | 4

320.51 МБ

В этой теме нет новых непрочитанных сообщений. Обмен [01-04 из 04] (2014) HDTVRip от GeneralFilm

1724 | 256

2.53 ГБ

В этой теме нет новых непрочитанных сообщений. Обмен [01-04 из 04] (2014) HDTVRip-AVC от Files-x

305 | 23

2.7 ГБ

В этой теме нет новых непрочитанных сообщений. Спасибо за обмен / Thanks for Sharing (2012) HDRip-AVC от New-Team | P | лицензия

234 | 121

2.19 ГБ




Вы не можете начинать темы
Вы не можете отвечать на сообщения
Вы не можете редактировать свои сообщения
Вы не можете удалять свои сообщения
Вы не можете добавлять вложения

Перейти:  
Для Мосгорсуда, Роскомнадзора и рекламодателей: mosgorsud-torrent[собачка]yandex.ru
 Вход
ppkBB3cker v.2 © 2008-2014 @ PPK
[ Time : 0.033s | 15 Queries | GZIP : Off ]

Торрент трекер RUTOR.IN, Не можете зайти на rutor.org? Какой новый адрес рутор? Какое зеркало рутор? Не работает rutor.org и зеркала? Тогда наш торрент специально для вас. Rutor.in неофициальное зеркало rutor. В случае если у Вас заблокирован rutor или вдруг Вы не можете на него зайти, то Вы без труда сможете скачать бесплатно и без рекламы последние новинки кино, игр, сериалов и прочего у нас, на Rutor.in. Не нужно использовать прокси, чтобы зайти на рутор, достаточно воспользоваться нашим ресурсом. Все новые фильмы, игры, сериалы, книги и музыка за 2013 и 2014 годы через торрент бесплатно. Скачивайте фильмы в хорошем качестве, игры для пк, xbox, playstation без регистрации. У нас вы найдете новые Зарубежные сериалы и Русские сериалы 2013, 2014, 2015 годов. Оставайтесь с нами, качайте любимые фильмы, игры, сериалы, книги и музыку.