img image001 image001 image001 image001 image001 image001 image001 image001 image001 image001 image001 image001 image001 image001 image001

Planets Sun Sun Sun
Статистика раздачи
Автор: Nickolas3434 | Размер: 655.01 МБ | Добавлен: 16 фев 2016
Раздают: 267    Качают: 6
Скачать торрент
Скачать торрент
Описание торрента

СообщениеДобавлено: 16 фев 2016 


Информация о фильме
Название: 11/22/63
Оригинальное название: 11.22.63
Год выхода: 2016
Жанр: фантастика, триллер, детектив
Режиссер: Джеймс Стронг, Фред Туа, Джеймс Кент
В ролях: Джеймс Франко, Крис Купер, Джош Дюамель, Люси Фрай, Сара Гадон, Черри Джонс, Т.Р. Найт, Джордж МакКэй, Даниэль Уэббер, Chris Gleason
О фильме:
Учитель английского языка отправляется в прошлое, чтобы предотвратить убийство Кеннеди, но в результате сильно привязывается к той жизни, которую он сделал в ушедшей эпохе.

Страна: США
Продолжительность: ~01:22:00 серия
Перевод: Любительский двухголосый [Kerob]
Файл
Кодек: XviD
Качество: HDTVRip
Видео: 720x400, 988 Kbps, 23.976 fps
Звук: MP3, 128 Kbps, 2 channels
Format : AVI
Format/Info : Audio Video Interleave
File size : 655 MiB
Duration : 1h 21mn
Overall bit rate : 1 129 Kbps
Writing application : Lavf54.63.104
Video
ID : 0
Format : xvid
Codec ID : xvid
Duration : 1h 21mn
Bit rate : 988 Kbps
Width : 720 pixels
Height : 400 pixels
Display aspect ratio : 16:9
Frame rate : 23.976 fps
Scan type : Progressive
Bits/(Pixel*Frame) : 0.143
Stream size : 573 MiB (88%)
Audio
ID : 1
Format : MPEG Audio
Format version : Version 1
Format profile : Layer 3
Mode : Joint stereo
Codec ID : 55
Codec ID/Hint : MP3
Duration : 1h 21mn
Bit rate mode : Constant
Bit rate : 128 Kbps
Channel(s) : 2 channels
Sampling rate : 48.0 KHz
Compression mode : Lossy
Stream size : 74.3 MiB (11%)
Alignment : Aligned on interleaves
Interleave, duration : 24 ms (0.58 video frame)
Writing library : LAME3.99.5

Семпл

Когда раздача ведётся путём добавления новых серий, при каждом добавлении создётся новый торрент. Чтобы начать докачку новой серии, пользователям необходимо сделать следующее:
(1) остановить скачивание,
(2) удалить старый торрент у себя из клиента (старые серии удалять не надо),
(3) скачать новый торрент и запустить его у себя в клиенте вместо старого, при этом указать клиенту путь в старую папку, куда и должно происходить скачивание новых серий.
Ваш клиент при этом должен произвести хеширование (проверку) старой папки (если не производит сам - помогите ему сделать это), и будет докачивать только те серии, которых у вас ещё нет. Старые серии при этом не удаляются, а продолжают раздаваться!
Eсли вы уже удалили старые серии, то предотвратить повторную закачку старых серий можно, отжав галочку в соответсвующих местах при запуске нового торрента. По возможности, желательно не удалять старые серии как можно дольше, чтобы релизёр не столько продолжал раздавать старые серии, а смог сконцентрироваться на новых.



   Похожие торренты   Торрент   Размер 
В этой теме нет новых непрочитанных сообщений. 11.22.63 / 11.22.63 [01x01-02 из 08] (2016) HDTVRip от Kerob | L2

312 | 206

1.04 ГБ

В этой теме нет новых непрочитанных сообщений. 11.22.63 / 11.22.63 [01x01-03 из 08] (2016) HDTVRip от Kerob | L2

511 | 1303

1.42 ГБ

В этой теме нет новых непрочитанных сообщений. 11.22.63 / 11.22.63 [01x01-04 из 08] (2016) HDTVRip от Kerob | L2

535 | 916

1.82 ГБ

В этой теме нет новых непрочитанных сообщений. Дэмиен / Damien [01x01 из 10] (2016) HDTVRip от Kerob | L2

36 | 1

324.58 МБ

В этой теме нет новых непрочитанных сообщений. Тутанхамон / Tut [01x01-04 из 06] (2015) HDTVRip | Kerob

367 | 67

2.02 ГБ

В этой теме нет новых непрочитанных сообщений. Зверинец / Zoo [01x01-04 из 13] (2015) HDTVRip | Kerob

30 | 40

2.02 ГБ

В этой теме нет новых непрочитанных сообщений. Тутанхамон / Tut [01x01-06 из 06] (2015) HDTVRip | Kerob

383 | 66

3 ГБ




Вы не можете начинать темы
Вы не можете отвечать на сообщения
Вы не можете редактировать свои сообщения
Вы не можете удалять свои сообщения
Вы не можете добавлять вложения

Перейти:  
Для Мосгорсуда, Роскомнадзора и рекламодателей: mosgorsud-torrent[собачка]yandex.ru
 Вход
ppkBB3cker v.2 © 2008-2014 @ PPK
[ Time : 0.147s | 16 Queries | GZIP : Off ]

Торрент трекер RUTOR.IN, Не можете зайти на rutor.org? Какой новый адрес рутор? Какое зеркало рутор? Не работает rutor.org и зеркала? Тогда наш торрент специально для вас. Rutor.in неофициальное зеркало rutor. В случае если у Вас заблокирован rutor или вдруг Вы не можете на него зайти, то Вы без труда сможете скачать бесплатно и без рекламы последние новинки кино, игр, сериалов и прочего у нас, на Rutor.in. Не нужно использовать прокси, чтобы зайти на рутор, достаточно воспользоваться нашим ресурсом. Все новые фильмы, игры, сериалы, книги и музыка за 2013 и 2014 годы через торрент бесплатно. Скачивайте фильмы в хорошем качестве, игры для пк, xbox, playstation без регистрации. У нас вы найдете новые Зарубежные сериалы и Русские сериалы 2013, 2014, 2015 годов. Оставайтесь с нами, качайте любимые фильмы, игры, сериалы, книги и музыку.