img image001 image001 image001 image001 image001 image001 image001 image001 image001 image001 image001 image001 image001 image001 image001

Planets Sun Sun Sun
Статистика раздачи
Автор: Nickolas3434 | Размер: 1.81 ГБ | Добавлен: 17 фев 2016
Раздают: 1042    Качают: 890
Скачать торрент
Скачать торрент
Описание торрента

СообщениеДобавлено: 17 фев 2016 


Информация о фильме
Название: Секретные материалы
Оригинальное название: The X-Files
Год выхода: 2016
Жанр: Фантастика, триллер, драма, детектив
Режиссер: Крис Картер, Дэрин Морган, Глен Морган
В ролях: Дэвид Духовны, Джиллиан Андерсон, Митч Пиледжи, Уильям Б. Дэвис, Робби Амелл, Том Брэйдвуд, Дин Хэглунд, Брюс Харвуд, Джоэл МакХэйл, Лорен Эмброуз
О фильме:
Специальные агенты ФБР, Фокс Малдер и Дана Скалли, снова работают вместе, чтобы расследовать странные и необъяснимые дела, связанные с паранормальными явлениями.
Страна: США
Продолжительность: 5 x ~ 00:45:00
Перевод: профессиональный дублированный - ТВ3
Файл
Качество: WEB-DLRip
Формат: AVI
Видео: 656x368 (16:9), XviD, ~1020 kbps avg, 23.976 fps, 0.178 bit/pixel
Аудио rus: 48 kHz, MP3, 2 ch, 128.00 kbps avg
Субтитры: русские (форсированные на надписи)
Полное имя : The.X-Files.(Sezon.10).2016.WEB-DLRip.by.GeneralFilmSerija.01.avi
Формат : AVI
Формат/Информация : Audio Video Interleave
Размер файла : 371 Мбайт
Продолжительность : 44 м.
Общий поток : 1164 Кбит/сек
Программа кодирования : VirtualDubMod 1.5.10.3 | www.virtualdub-fr.org || (build 2550/release)
Библиотека кодирования : VirtualDubMod build 2550/release
Видео
Идентификатор : 0
Формат : MPEG-4 Visual
Профиль формата : Advanced Simple@L5
Параметр BVOP формата : 1
Параметр QPel формата : Нет
Параметр GMC формата : Без точки перехода
Параметр матрицы формата : Выборочная
Идентификатор кодека : XVID
Идентификатор кодека/Подсказка : XviD
Продолжительность : 44 м.
Битрейт : 1028 Кбит/сек
Ширина : 656 пикселей
Высота : 368 пикселей
Соотношение сторон : 16:9
Частота кадров : 23,976 (23976/1000) кадра/сек
Цветовое пространство : YUV
Субдискретизация насыщенности : 4:2:0
Битовая глубина : 8 бит
Тип развёртки : Прогрессивная
Метод сжатия : С потерями
Бит/(Пиксели*Кадры) : 0.178
Размер потока : 328 Мбайт (88%)
Библиотека кодирования : XviD 73
Аудио
Идентификатор : 1
Формат : MPEG Audio
Версия формата : Version 1
Профиль формата : Layer 3
Идентификатор кодека : 55
Идентификатор кодека/Подсказка : MP3
Продолжительность : 43 м.
Вид битрейта : Постоянный
Битрейт : 128 Кбит/сек
Каналы : 2 канала
Частота : 48,0 КГц
Метод сжатия : С потерями
Размер потока : 40,3 Мбайт (11%)
Выравнивание : Соединение по промежуткам
Продолжительность промежутка : 42 мс. (1,01 видеокадр)
Время предзагрузки промежутка : 504 мс.
Библиотека кодирования : LAME3.99r
Настройки программы : -m s -V 4 -q 0 -lowpass 17 -b 128





Релиз от:



   Похожие торренты   Торрент   Размер 
В этой теме нет новых непрочитанных сообщений. Секретные материалы / The X-Files [10х01-03 из 06] (2016) WEB-DLRip от GeneralFilm | TB3

182 | 210

1.09 ГБ

В этой теме нет новых непрочитанных сообщений. Секретные материалы / The X-Files [10х01-04 из 06] (2016) WEB-DLRip от GeneralFilm | TB3

89 | 182

1.45 ГБ

В этой теме нет новых непрочитанных сообщений. Секретные материалы / The X-Files [10х01-04 из 06] (2016) WEB-DLRip-AVC от New-Team | TB3

145 | 167

1.95 ГБ

В этой теме нет новых непрочитанных сообщений. Секретные материалы / The X-Files [10х01-02 из 06] (2016) WEB-DLRip-AVC от New-Team | TB3

806 | 168

996.59 МБ

В этой теме нет новых непрочитанных сообщений. Секретные материалы / The X Files [10х01-03 из 06] (2016) WEB-DLRip-AVC | Кравец

110 | 102

2.11 ГБ

В этой теме нет новых непрочитанных сообщений. Секретные материалы / The X-Files [10х01-03 из 06] (2016) WEB-DLRip-AVC от New-Team | TB3

51 | 37

1.46 ГБ

В этой теме нет новых непрочитанных сообщений. Секретные материалы / The X-Files [10х01-04 из 06] (2016) WEB-DLRip-AVC от New-Team | TB3

4 | 426

1.95 ГБ




Вы не можете начинать темы
Вы не можете отвечать на сообщения
Вы не можете редактировать свои сообщения
Вы не можете удалять свои сообщения
Вы не можете добавлять вложения

Перейти:  
Для Мосгорсуда, Роскомнадзора и рекламодателей: mosgorsud-torrent[собачка]yandex.ru
 Вход
ppkBB3cker v.2 © 2008-2014 @ PPK
[ Time : 0.025s | 14 Queries | GZIP : On ]

Торрент трекер RUTOR.IN, Не можете зайти на rutor.org? Какой новый адрес рутор? Какое зеркало рутор? Не работает rutor.org и зеркала? Тогда наш торрент специально для вас. Rutor.in неофициальное зеркало rutor. В случае если у Вас заблокирован rutor или вдруг Вы не можете на него зайти, то Вы без труда сможете скачать бесплатно и без рекламы последние новинки кино, игр, сериалов и прочего у нас, на Rutor.in. Не нужно использовать прокси, чтобы зайти на рутор, достаточно воспользоваться нашим ресурсом. Все новые фильмы, игры, сериалы, книги и музыка за 2013 и 2014 годы через торрент бесплатно. Скачивайте фильмы в хорошем качестве, игры для пк, xbox, playstation без регистрации. У нас вы найдете новые Зарубежные сериалы и Русские сериалы 2013, 2014, 2015 годов. Оставайтесь с нами, качайте любимые фильмы, игры, сериалы, книги и музыку.