img image001 image001 image001 image001 image001 image001 image001 image001 image001 image001 image001 image001 image001 image001 image001

Planets Sun Sun Sun
Статистика раздачи
Автор: Nickolas3434 | Размер: 3.28 ГБ | Добавлен: 25 фев 2016
Раздают: 639    Качают: 654
Скачать торрент
Скачать торрент
Описание торрента

СообщениеДобавлено: 25 фев 2016 

Производство: США / 20th Century Fox Television, Ten Thirteen Productions
Жанр: фантастика, триллер, драма, детектив
Режиссер: Крис Картер, Дэрин Морган, Глен Морган
Актеры: Дэвид Духовны, Джиллиан Андерсон, Митч Пиледжи, Уильям Б. Дэвис, Робби Амелл, Том Брэйдвуд, Дин Хэглунд, Брюс Харвуд, Джоэл МакХэйл, Лорен Эмброуз и др.
Описание:
Фокс Малдер и Дана Скалли снова вместе. На них выходит ведущий интернет-канала Тэд О'Малли, специализирующийся на расследовании государственных секретов. По словам О'Малли, он близок к раскрытию международного заговора, скрывающего от населения всю правду об инопланетянах. Малдер готов поверить О'Малли, Скалли как всегда скептична, но, как минимум, готова выслушать аргументы...

Дата премьеры в США: 24 января 2016
Дата премьеры в России: 26 января 2016
Релиз от: K.E.N (NNM-CLUB)
Продолжительность: ~00:45:00 серия
Качество видео: WEB-DLRip-AVC
Перевод: Дублированный (ТВ3), многоголосый закадровый, профессиональный (Кравец)
Субтитры: отсутствуют
Видео: AVC, 1024x576 (16:9), 23.976 fps, 1 460 Kbps (0.103 bit/pixel)
Аудио #1: AC-3, 48.0 KHz, 2 ch, 192 Kbps, CBR (Russian) - дубляж
Аудио #2: 1-2 серии: AAC LC, 48.0 KHz, 2 ch, 122 kbps (Russian), 3-6 серии: AC-3, 48.0 KHz, 2 ch, 192 Kbps, CBR (Russian) - многоголосый
Скриншоты:

Код:
Duration: 00:43:58 (2637.97)
 Track #1: video
  lang: und (1)
  codc: V_MPEG4/ISO/AVC -> H264/AVC (22)
  reso: 1024x576 (1024x576) -> 16:9
  fram: 23.976 fps
  rate: 1460 kbps (1460.27)
  dura: 00:43:58 (2637.89)
  size: 459.20 MB (481502915)
 Track #2: audio (￐ヤ￑テ￐ᄆ￐ᄏ￑マ￐ᄊ ￐ᄁ￐メ-3)
  lang: rus -> Russian (15)
  codc: A_AC3 -> AC3 (2)
  chan: 2 -> Stereo
  samp: 48000 Hz
  rate: 192 kbps (192.04)
  dura: 00:43:57 (2637.28)
  size: 60.38 MB (63309139)
 Track #3: audio (￐ワ￐ᄑ￐ᄒ￐ᄈ￐ᄒ￐ᄈ￐ᄒ￐ᄏ￐ᄒ￑チ￑ヒ￐ᄍ - ￐レ￑タ￐ᄚ￐ᄇ￐ᄉ￑ニ)
  lang: rus -> Russian (15)
  codc: A_AAC -> AAC (9)
  chan: 2 -> Stereo
  samp: 48000 Hz
  rate: 122 kbps (121.77)
  dura: 00:43:58 (2637.91)
  size: 38.29 MB (40151126)
 Sizes: (check sanity)
  disk: 558.65 MB (585790091)
  atts: 155.16 KB (158887)
  trac: 557.86 MB (584963180) [based on track size]
  bitr: 557.88 MB (584977284) [based on bitrate]
  tdif: 652.37 KB (668024) 0.11%
  bdif: 638.59 KB (653919) 0.11%
Код:
Формат                                   : Matroska
Версия формата                           : Version 2
Размер файла                             : 559 Мбайт
Продолжительность                        : 43 м.
Общий поток                              : 1776 Кбит/сек
Дата кодирования                         : UTC 2016-01-26 13:37:07
Программа кодирования                    : mkvmerge v5.3.0 ('I could have danced') built on Feb  9 2012 10:38:07
Библиотека кодирования                   : libebml v1.2.3 + libmatroska v1.3.0
Attachment                               : Yes
Видео
Идентификатор                            : 1
Формат                                   : AVC
Формат/Информация                        : Advanced Video Codec
Профиль формата                          : High@L4.1
Параметр CABAC формата                   : Да
Параметр ReFrames формата                : 9 кадров
Идентификатор кодека                     : V_MPEG4/ISO/AVC
Продолжительность                        : 43 м.
Номинальный битрейт                      : 1460 Кбит/сек
Ширина                                   : 1024 пикселя
Высота                                   : 576 пикселей
Соотношение сторон                       : 16:9
Режим частоты кадров                     : Постоянный
Частота кадров                           : 23,976 кадра/сек
Цветовое пространство                    : YUV
Субдискретизация насыщенности            : 4:2:0
Битовая глубина                          : 8 бит
Тип развёртки                            : Прогрессивная
Бит/(Пиксели*Кадры)                      : 0.103
Библиотека кодирования                   : x264 core 146 r2538 121396c
Настройки программы                      : cabac=1 / ref=9 / deblock=1:-2:-2 / analyse=0x3:0x133 / me=umh / subme=10 / psy=1 / psy_rd=1.00:0.00 / mixed_ref=1 / me_range=32 / chroma_me=1 / trellis=2 / 8x8dct=1 / cqm=0 / deadzone=21,11 / fast_pskip=0 / chroma_qp_offset=-2 / threads=2 / lookahead_threads=2 / sliced_threads=0 / nr=0 / decimate=0 / interlaced=0 / bluray_compat=0 / constrained_intra=0 / bframes=6 / b_pyramid=2 / b_adapt=2 / b_bias=0 / direct=3 / weightb=1 / open_gop=0 / weightp=2 / keyint=240 / keyint_min=23 / scenecut=40 / intra_refresh=0 / rc=2pass / mbtree=0 / bitrate=1460 / ratetol=1.0 / qcomp=0.60 / qpmin=0 / qpmax=69 / qpstep=4 / cplxblur=20.0 / qblur=0.5 / ip_ratio=1.40 / pb_ratio=1.30 / aq=1:0.70
Default                                  : Да
Forced                                   : Нет
Аудио #1
Идентификатор                            : 2
Формат                                   : AC-3
Формат/Информация                        : Audio Coding 3
Расширение режима                        : CM (complete main)
Параметр Endianness формата              : Big
Идентификатор кодека                     : A_AC3
Продолжительность                        : 43 м.
Вид битрейта                             : Постоянный
Битрейт                                  : 192 Кбит/сек
Каналы                                   : 2 канала
Расположение каналов                     : Front: L R
Частота                                  : 48,0 КГц
Битовая глубина                          : 16 бит
Метод сжатия                             : С потерями
Размер потока                            : 60,4 Мбайт (11%)
Заголовок                                : Дубляж ТВ-3
Язык                                     : Russian
Default                                  : Да
Forced                                   : Нет
Аудио #2
Идентификатор                            : 3
Формат                                   : AAC
Формат/Информация                        : Advanced Audio Codec
Профиль формата                          : LC
Идентификатор кодека                     : A_AAC
Продолжительность                        : 43 м.
Каналы                                   : 2 канала
Расположение каналов                     : Front: L R
Частота                                  : 48,0 КГц
Метод сжатия                             : С потерями
Заголовок                                : Многоголосый - Кравец
Язык                                     : Russian
Default                                  : Нет
Forced                                   : Нет
Полное имя                               : D:ФИЛЬМЫФИЛЬМЫСекретные материалы.(2016) [S01].NNM-CLUBThe.X-Files.(2016) S01E03.mkv
Формат                                   : Matroska
Версия формата                           : Version 2
Размер файла                             : 559 Мбайт
Продолжительность                        : 44 м.
Общий поток                              : 1767 Кбит/сек
Дата кодирования                         : UTC 2016-02-04 08:02:01
Программа кодирования                    : mkvmerge v5.3.0 ('I could have danced') built on Feb  9 2012 10:38:07
Библиотека кодирования                   : libebml v1.2.3 + libmatroska v1.3.0
Attachment                               : Yes
Видео
Идентификатор                            : 1
Формат                                   : AVC
Формат/Информация                        : Advanced Video Codec
Профиль формата                          : High@L4.1
Параметр CABAC формата                   : Да
Параметр ReFrames формата                : 9 кадров
Идентификатор кодека                     : V_MPEG4/ISO/AVC
Продолжительность                        : 44 м.
Битрейт                                  : 1383 Кбит/сек
Ширина                                   : 1024 пикселя
Высота                                   : 576 пикселей
Соотношение сторон                       : 16:9
Режим частоты кадров                     : Постоянный
Частота кадров                           : 23,976 кадра/сек
Цветовое пространство                    : YUV
Субдискретизация насыщенности            : 4:2:0
Битовая глубина                          : 8 бит
Тип развёртки                            : Прогрессивная
Бит/(Пиксели*Кадры)                      : 0.098
Размер потока                            : 427 Мбайт (76%)
Библиотека кодирования                   : x264 core 146 r2538 121396c
Настройки программы                      : cabac=1 / ref=9 / deblock=1:-2:-2 / analyse=0x3:0x133 / me=umh / subme=10 / psy=1 / psy_rd=1.00:0.00 / mixed_ref=1 / me_range=32 / chroma_me=1 / trellis=2 / 8x8dct=1 / cqm=0 / deadzone=21,11 / fast_pskip=0 / chroma_qp_offset=-2 / threads=2 / lookahead_threads=2 / sliced_threads=0 / nr=0 / decimate=0 / interlaced=0 / bluray_compat=0 / constrained_intra=0 / bframes=6 / b_pyramid=2 / b_adapt=2 / b_bias=0 / direct=3 / weightb=1 / open_gop=0 / weightp=2 / keyint=240 / keyint_min=23 / scenecut=40 / intra_refresh=0 / rc=2pass / mbtree=0 / bitrate=1383 / ratetol=1.0 / qcomp=0.60 / qpmin=0 / qpmax=69 / qpstep=4 / cplxblur=20.0 / qblur=0.5 / ip_ratio=1.40 / pb_ratio=1.30 / aq=1:1.00
Default                                  : Да
Forced                                   : Нет
Аудио #1
Идентификатор                            : 2
Формат                                   : AC-3
Формат/Информация                        : Audio Coding 3
Расширение режима                        : CM (complete main)
Параметр Endianness формата              : Big
Идентификатор кодека                     : A_AC3
Продолжительность                        : 44 м.
Вид битрейта                             : Постоянный
Битрейт                                  : 192 Кбит/сек
Каналы                                   : 2 канала
Расположение каналов                     : Front: L R
Частота                                  : 48,0 КГц
Битовая глубина                          : 16 бит
Метод сжатия                             : С потерями
Размер потока                            : 60,8 Мбайт (11%)
Заголовок                                : Дубляж ТВ-3
Язык                                     : Russian
Default                                  : Да
Forced                                   : Нет
Аудио #2
Идентификатор                            : 3
Формат                                   : AC-3
Формат/Информация                        : Audio Coding 3
Расширение режима                        : CM (complete main)
Параметр Endianness формата              : Big
Идентификатор кодека                     : A_AC3
Продолжительность                        : 44 м.
Вид битрейта                             : Постоянный
Битрейт                                  : 192 Кбит/сек
Каналы                                   : 2 канала
Расположение каналов                     : Front: L R
Частота                                  : 48,0 КГц
Битовая глубина                          : 16 бит
Метод сжатия                             : С потерями
Размер потока                            : 60,8 Мбайт (11%)
Заголовок                                : Многоголосый - Кравец
Язык                                     : Russian
Default                                  : Нет
Forced                                   : Нет
 
Внимание! Раздача ведётся путём добавления новых серий; при каждом добавлении создаётся новый торрент.
Чтобы начать докачку новой серии, пользователям необходимо сделать следующее:
(1) остановить скачивание;
(2) удалить старый торрент у себя из клиента (старые серии удалять не надо);
(3) скачать новый торрент и запустить его у себя в клиенте вместо старого, при этом указать клиенту путь в старую папку куда и должно происходить скачивание новых серий.Ваш клиент при этом должен произвести хеширование (проверку) старой папки (если не производит сам - помогите ему сделать это), и будет докачивать только те серии которых у вас ещё нет. Старые серии при этом не удаляются, а продолжают раздаваться!Eсли вы уже удалили старые серии, то предотвратить повторную закачку старых серий можно, отжав галочку в соответствующих местах при запуске нового торрента.




   Похожие торренты   Торрент   Размер 
В этой теме нет новых непрочитанных сообщений. Секретные материалы / The X Files [s10] (2016) WEB-DLRip-AVC | Кравец

203 | 306

4.17 ГБ

В этой теме нет новых непрочитанных сообщений. Секретные материалы / The X Files [10х01-04 из 06] (2016) WEB-DLRip-AVC | Кравец

35 | 113

2.79 ГБ

В этой теме нет новых непрочитанных сообщений. Секретные материалы / The X Files [10х01-05 из 06] (2016) WEB-DLRip-AVC | Кравец

127 | 192

3.48 ГБ

В этой теме нет новых непрочитанных сообщений. Секретные материалы / The X Files [10х01-03 из 06] (2016) WEB-DLRip-AVC | Кравец

110 | 102

2.11 ГБ

В этой теме нет новых непрочитанных сообщений. Секретные материалы / The X Files [10х03 из 06] (2016) WEB-DLRip 1080р | Кравец

361 | 65

1.68 ГБ

В этой теме нет новых непрочитанных сообщений. Секретные материалы / The X Files [10х04 из 06] (2016) WEB-DLRip 1080 | Кравец

315 | 27

1.61 ГБ

В этой теме нет новых непрочитанных сообщений. Секретные материалы / The X Files [10х05 из 06] (2016) WEB-DLRip 1080р | Кравец

537 | 47

1.66 ГБ




Вы не можете начинать темы
Вы не можете отвечать на сообщения
Вы не можете редактировать свои сообщения
Вы не можете удалять свои сообщения
Вы не можете добавлять вложения

Перейти:  
Для Мосгорсуда, Роскомнадзора и рекламодателей: mosgorsud-torrent[собачка]yandex.ru
 Вход
ppkBB3cker v.2 © 2008-2014 @ PPK
[ Time : 0.033s | 17 Queries | GZIP : On ]

Торрент трекер RUTOR.IN, Не можете зайти на rutor.org? Какой новый адрес рутор? Какое зеркало рутор? Не работает rutor.org и зеркала? Тогда наш торрент специально для вас. Rutor.in неофициальное зеркало rutor. В случае если у Вас заблокирован rutor или вдруг Вы не можете на него зайти, то Вы без труда сможете скачать бесплатно и без рекламы последние новинки кино, игр, сериалов и прочего у нас, на Rutor.in. Не нужно использовать прокси, чтобы зайти на рутор, достаточно воспользоваться нашим ресурсом. Все новые фильмы, игры, сериалы, книги и музыка за 2013 и 2014 годы через торрент бесплатно. Скачивайте фильмы в хорошем качестве, игры для пк, xbox, playstation без регистрации. У нас вы найдете новые Зарубежные сериалы и Русские сериалы 2013, 2014, 2015 годов. Оставайтесь с нами, качайте любимые фильмы, игры, сериалы, книги и музыку.