img image001 image001 image001 image001 image001 image001 image001 image001 image001 image001 image001 image001 image001 image001 image001

Planets Sun Sun Sun
Статистика раздачи
Автор: Nickolas3434 | Размер: 3.72 ГБ | Добавлен: 08 мар 2016
Раздают: 81    Качают: 24
Скачать торрент
Скачать торрент
Описание торрента

СообщениеДобавлено: 08 мар 2016 


Название: Ночной администратор
Оригинальное название: The Night Manager
Год выхода: 2016
Жанр: Боевик, триллер, драма
Режиссер: Сюзанна Бир
В ролях:
Том Хиддлстон, Хью Лори, Элизабет Дебики, Оливия Колман, Том Холландер, Кэтерин Келли, Майкл Нардон, Алистэр Петри, Джонатан Арис, Дэвид Хэрвуд и др.
Описание сериала:
Ночной администратор европейского отеля завербован агентами спецслужб для проникновения в международную сеть торговца оружием.
Страна: Великобритания
Производство: BBC Television Centre, Demarest Films, White Hare
Продолжительность: ~ 00:45:00
Перевод: Любительский (многоголосый закадровый) Adiós Muchachos
Субтитры: Русские: [Анастасия Кисиленко (Medveditsa)], Английские: (Softsub SRT)

Файл
Формат: MKV
Качество: WEB-DL 720р
Видео: 1280x718 (16:9), 25 fps, MPEG-4 AVC ~3800 kbps avg, 0.100 bit/pixel
Аудио RUS: 48 kHz, AC3 Dolby Digital, 3/2 (L,C,R,l,r) + LFE ch, ~384 kbps
Аудио ENG: 48 kHz, AC3 Dolby Digital, 3/2 (L,C,R,l,r) + LFE ch, ~384 kbps
Релиз группа:

Общее
Уникальный идентификатор : 967142422858990966010802639629445289 (0xBA43CD8E0684FB7C0EE197A5D7E8A9)
Полное имя : /The.Night.Manager.S01.720p.WEB-DL.AdiósMuchachos/Sample.The.Night.Manager.S01E01.720p.WEB-DL.AdiósMuchachos.mkv
Формат : Matroska
Версия формата : Version 4 / Version 2
Размер файла : 38,7 Мбайт
Продолжительность : 1 м. 19 с.
Общий поток : 4101 Кбит/сек
Название фильма : The Night Manager 01 - Release from Adiós Muchachos
Дата кодирования : UTC 0000-00-00 00:00:00
Программа кодирования : mkvmerge v8.1.0 ('Psychedelic Postcard') 64bit
Библиотека кодирования : libebml v1.3.1 + libmatroska v1.4.2
Видео
Идентификатор : 1
Формат : AVC
Формат/Информация : Advanced Video Codec
Профиль формата : Main@L3.1
Параметр CABAC формата : Нет
Параметр ReFrames формата : 2 кадра
Идентификатор кодека : V_MPEG4/ISO/AVC
Продолжительность : 1 м. 19 с.
Битрейт : 3251 Кбит/сек
Ширина : 960 пикселей
Высота : 718 пикселей
Соотношение сторон : 16:9
Режим частоты кадров : Постоянный
Частота кадров : 25,000 кадров/сек
Цветовое пространство : YUV
Субдискретизация насыщенности : 4:2:0
Битовая глубина : 8 бит
Тип развёртки : Прогрессивная
Бит/(Пиксели*Кадры) : 0.189
Размер потока : 30,7 Мбайт (79%)
Язык : English
Default : Да
Forced : Нет
Цветовой диапазон : Limited
Основные цвета : BT.709
Характеристики трансфера : BT.709
Коэффициенты матрицы : BT.709
Аудио #1
Идентификатор : 2
Формат : AC-3
Формат/Информация : Audio Coding 3
Расширение режима : CM (complete main)
Параметр Endianness формата : Big
Идентификатор кодека : A_AC3
Продолжительность : 1 м. 19 с.
Вид битрейта : Постоянный
Битрейт : 384 Кбит/сек
Каналы : 6 каналов
Расположение каналов : Front: L C R, Side: L R, LFE
Частота : 48,0 КГц
Частота кадров : 31,250 кадров/сек (1536 spf)
Метод сжатия : С потерями
Задержка видео : 16 мс.
Размер потока : 3,63 Мбайт (9%)
Заголовок : MVO Adiós Muchachos
Язык : Russian
Default : Да
Forced : Нет
Аудио #2
Идентификатор : 3
Формат : AC-3
Формат/Информация : Audio Coding 3
Расширение режима : CM (complete main)
Параметр Endianness формата : Big
Идентификатор кодека : A_AC3
Продолжительность : 1 м. 19 с.
Вид битрейта : Постоянный
Битрейт : 384 Кбит/сек
Каналы : 6 каналов
Расположение каналов : Front: L C R, Side: L R, LFE
Частота : 48,0 КГц
Частота кадров : 31,250 кадров/сек (1536 spf)
Метод сжатия : С потерями
Задержка видео : 16 мс.
Размер потока : 3,63 Мбайт (9%)
Заголовок : English
Язык : English
Default : Нет
Forced : Нет
Текст #1
Идентификатор : 4
Формат : UTF-8
Идентификатор кодека : S_TEXT/UTF8
Идентификатор кодека/Информация : UTF-8 Plain Text
Заголовок : Rus-Subs by Anastasiya Kisilenko (Medveditsa)
Язык : Russian
Default : Нет
Forced : Нет
Текст #2
Идентификатор : 5
Формат : UTF-8
Идентификатор кодека : S_TEXT/UTF8
Идентификатор кодека/Информация : UTF-8 Plain Text
Заголовок : Eng-Subs
Язык : English
Default : Нет
Forced : Нет
Внимание! Раздача ведётся путём добавления новых серий; при каждом добавлении создаётся новый торрент. Чтобы начать докачку новой серии, пользователям необходимо сделать следующее:
(1) остановить скачивание,
(2) удалить старый торрент у себя из клиента (старые серии удалять не надо),
(3) скачать новый торрент и запустить его у себя в клиенте вместо старого, при этом указать клиенту путь в старую папку куда и должно происходить скачивание новых серий.
Ваш клиент при этом должен произвести хеширование (проверку) старой папки (если не производит сам - помогите ему сделать это), и будет докачивать только те серии которых у вас ещё нет. Старые серии при этом не удаляются, а продолжают раздаваться!
Eсли вы уже удалили старые серии, то предотвратить повторную закачку старых серий можно, отжав галочку в соответсвующих местах при запуске нового торрента. По возможности, желательно не удалять старые серии как можно дольше чтобы релизёр не столько продолжал раздавать старые серии, а смог сконцентрироваться на новых.



   Похожие торренты   Торрент   Размер 
В этой теме нет новых непрочитанных сообщений. Ночной администратор / The Night Manager [01х01-02 из 06] (2016) WEB-DL 1080p | Adiós Muchachos

67 | 22

4.52 ГБ

В этой теме нет новых непрочитанных сообщений. Ночной администратор / The Night Manager [01х01-02 из 06] (2016) WEB-DLRip | Adiós Muchachos

199 | 20

2.02 ГБ

В этой теме нет новых непрочитанных сообщений. Ночной администратор / The Night Manager [01х01 из 06] (2016) WEB-DL 720p | Jaskier

178 | 27

1.88 ГБ

В этой теме нет новых непрочитанных сообщений. Ночной администратор / The Night Manager [01х01-02 из 06] (2016) WEB-DL 720p | Jaskier

279 | 321

3.72 ГБ

В этой теме нет новых непрочитанных сообщений. Ночной администратор / The Night Manager [01х01-04 из 06] (2016) WEB-DL 720p | Jaskier

184 | 303

7.62 ГБ

В этой теме нет новых непрочитанных сообщений. Ночной администратор / The Night Manager [01х01-03 из 06] (2016) WEB-DL 720p | Jaskier

72 | 56

5.67 ГБ

В этой теме нет новых непрочитанных сообщений. Ночной администратор / The Night Manager [01х01 из 06] (2016) HDTVRip | AMC

0 | 399

741.48 МБ




Вы не можете начинать темы
Вы не можете отвечать на сообщения
Вы не можете редактировать свои сообщения
Вы не можете удалять свои сообщения
Вы не можете добавлять вложения

Перейти:  
Для Мосгорсуда, Роскомнадзора и рекламодателей: mosgorsud-torrent[собачка]yandex.ru
 Вход
ppkBB3cker v.2 © 2008-2014 @ PPK
[ Time : 0.026s | 16 Queries | GZIP : Off ]

Торрент трекер RUTOR.IN, Не можете зайти на rutor.org? Какой новый адрес рутор? Какое зеркало рутор? Не работает rutor.org и зеркала? Тогда наш торрент специально для вас. Rutor.in неофициальное зеркало rutor. В случае если у Вас заблокирован rutor или вдруг Вы не можете на него зайти, то Вы без труда сможете скачать бесплатно и без рекламы последние новинки кино, игр, сериалов и прочего у нас, на Rutor.in. Не нужно использовать прокси, чтобы зайти на рутор, достаточно воспользоваться нашим ресурсом. Все новые фильмы, игры, сериалы, книги и музыка за 2013 и 2014 годы через торрент бесплатно. Скачивайте фильмы в хорошем качестве, игры для пк, xbox, playstation без регистрации. У нас вы найдете новые Зарубежные сериалы и Русские сериалы 2013, 2014, 2015 годов. Оставайтесь с нами, качайте любимые фильмы, игры, сериалы, книги и музыку.