img image001 image001 image001 image001 image001 image001 image001 image001 image001 image001 image001 image001 image001 image001 image001

Planets Sun Sun Sun
Статистика раздачи
Автор: PriZraK | Размер: 4.77 ГБ | Добавлен: 13 мар 2016
Раздают: 177    Качают: 23
Скачать торрент
Скачать торрент
Описание торрента

СообщениеДобавлено: 13 мар 2016 


Информация о фильме
Название: Батальонъ
Оригинальное название: Батальон смерти
Год выхода: 2015
Жанр: Драма, военный, исторический
Режиссер: Дмитрий Месхиев
В ролях: Мария Аронова, Мария Кожевникова, Валерия Шкирандо, Мария Антонова, Янина Малинчик, Мила Макарова, Ирина Рахманова, Алёна Кучкова, Полина Дудкина, Анна Кузнецова, Марат Башаров, Евгений Дятлов, Николай Аузин, Виталий Коваленко, Дмитрий Шевченко, Михаил Касапов, Леся Андреева, Максим Митяшин, Маргарита Бычкова, Константин Воробьёв, Кирилл Полухин, Алексей Ведерников (II), Хельга Филиппова, Сергей Бызгу, Артур Ваха, Владимир Зайцев, Матс Райнхардт, Валерий Дегтярь, Алексей Дмитриев, Яков Шамшин, Алексей Севастьянов , Юрий Ицков, Кирилл Кобзарев, Георгий Корольчук, Андрей Лёвин, Евгения Натанова, Сергей Тэсслер, Вера Савельева
О фильме:
Весна 1917-го года. Февральская революция изменила жизнь России и ход Великой войны. Государь уже отрёкся от престола. В окопах, где противостояние с немцами длится уже не один год, вовсю ведут свою пропаганду большевики. Они призывают к миру с неприятелем. Российское офицерство фактически ничего не может решить без одобрения так называемых солдатских комитетов. Армия находится на пороге окончательного разложения. По приказу Временного правительства для поднятия боевого духа создаётся женский «Батальон смерти» под командованием георгиевского кавалера Марии Бочкарёвой. Своей службой «Батальон смерти» подаёт пример храбрости, мужества и спокойствия, поднимает дух солдат и доказывает, что каждая из этих женщин-героев достойна звания воина русской армии.
Страна: Россия
Продолжительность: 2 x ~ 00:51:30
Перевод: не требуется
Файл
Кодек: x264
Качество: HDTVRip-AVC
Видео: MPEG-4 AVC, 2950 Кбит/с, 1152x624
Звук: AC3, 2 ch, 192 Кбит/с

raw [info]: 1152x624p 1:1 @ 25/1 fps (cfr)
x264 [info]: using SAR=1/1
x264 [info]: using cpu capabilities: MMX2 SSE2Fast SSSE3 SSE4.2 AVX
x264 [info]: profile High, level 4.1
x264 [info]: frame I:685 Avg QP:16.93 size: 85852
x264 [info]: frame P:19971 Avg QP:19.61 size: 32144
x264 [info]: frame B:57168 Avg QP:21.34 size: 7820
================================================================================================================
Общее
Уникальный идентификатор : 206905781871270237275913903287552806800 (0x9BA89AA61E70718CB0681416FE318F90)
Полное имя : R:МОИ РИПЫБатальонъ_2015-HDTVRip-AVCБатальон-1.mkv
Формат : Matroska
Версия формата : Version 2
Размер файла : 1,14 Гбайт
Продолжительность : 51 м.
Общий поток : 3144 Кбит/сек
Дата кодирования : UTC 2016-03-10 13:47:06
Программа кодирования : mkvmerge v5.8.0 ('No Sleep / Pillow') built on Sep 2 2012 15:37:04
Библиотека кодирования : libebml v1.2.3 + libmatroska v1.3.0
Видео
Идентификатор : 1
Формат : AVC
Формат/Информация : Advanced Video Codec
Профиль формата : High@L4.1
Параметр CABAC формата : Да
Параметр ReFrames формата : 11 кадров
Идентификатор кодека : V_MPEG4/ISO/AVC
Продолжительность : 51 м.
Битрейт : 2950 Кбит/сек
Ширина : 1152 пикселя
Высота : 624 пикселя
Соотношение сторон : 1,85:1
Режим частоты кадров : Постоянный
Частота кадров : 25,000 кадров/сек
Цветовое пространство : YUV
Субдискретизация насыщенности : 4:2:0
Битовая глубина : 8 бит
Тип развёртки : Прогрессивная
Бит/(Пиксели*Кадры) : 0.164
Размер потока : 1,05 Гбайт (92%)
Библиотека кодирования : x264 core 148 r2638 7599210
Настройки программы : cabac=1 / ref=11 / deblock=1:-2:-2 / analyse=0x3:0x113 / me=umh / subme=10 / psy=1 / psy_rd=1.05:0.07 / mixed_ref=1 / me_range=32 / chroma_me=1 / trellis=2 / 8x8dct=1 / cqm=0 / deadzone=21,11 / fast_pskip=0 / chroma_qp_offset=-3 / threads=12 / lookahead_threads=2 / sliced_threads=0 / nr=0 / decimate=0 / interlaced=0 / bluray_compat=0 / constrained_intra=0 / bframes=8 / b_pyramid=2 / b_adapt=2 / b_bias=0 / direct=3 / weightb=1 / open_gop=0 / weightp=2 / keyint=250 / keyint_min=25 / scenecut=40 / intra_refresh=0 / rc=2pass / mbtree=0 / bitrate=2950 / ratetol=1.0 / qcomp=0.63 / qpmin=0 / qpmax=39 / qpstep=4 / cplxblur=20.0 / qblur=0.5 / ip_ratio=1.20 / pb_ratio=1.30 / aq=1:1.00
Язык : English
Default : Да
Forced : Нет
Основные цвета : BT.709
Характеристики трансфера : BT.709
Коэффициенты матрицы : BT.709
Аудио
Идентификатор : 2
Формат : AC-3
Формат/Информация : Audio Coding 3
Расширение режима : CM (complete main)
Параметр Endianness формата : Big
Идентификатор кодека : A_AC3
Продолжительность : 51 м.
Вид битрейта : Постоянный
Битрейт : 192 Кбит/сек
Каналы : 2 канала
Расположение каналов : Front: L R
Частота : 48,0 КГц
Битовая глубина : 16 бит
Метод сжатия : С потерями
Размер потока : 71,3 Мбайт (6%)
Язык : Russian
Default : Да
Forced : Нет

Релиз от:
Автор релиза:



   Похожие торренты   Торрент   Размер 
В этой теме нет новых непрочитанных сообщений. Батальонъ [01-02 из 04] (2015) HDTVRip-AVC от ExKinoRay | Расширенная Телеверсия

267 | 14

2.27 ГБ

В этой теме нет новых непрочитанных сообщений. Батальонъ [01-02 из 04] (2015) HDTVRip от GeneralFilm | Расширенная Телеверсия

2412 | 404

2.89 ГБ

В этой теме нет новых непрочитанных сообщений. Батальонъ [01-02 из 04] (2015) HDTVRip-AVC от Files-x | Расширенная Телеверсия

445 | 110

3.17 ГБ

В этой теме нет новых непрочитанных сообщений. Батальонъ [01 из 04] (2015) HDTVRip 720p от GeneralFilm | Расширенная Телеверсия

314 | 128

5.34 ГБ

В этой теме нет новых непрочитанных сообщений. Батальонъ [01-02 из 04] (2015) WEB-DL 720p от GeneralFilm | Расширенная Телеверсия

449 | 103

2.99 ГБ

В этой теме нет новых непрочитанных сообщений. Батальонъ [01-02 из 04] (2015) WEB-DL 1080p от GeneralFilm | Расширенная Телеверсия

291 | 69

5 ГБ

В этой теме нет новых непрочитанных сообщений. Батальонъ [01-02 из 04] (2015) HDTV 1080i от GeneralFilm | Расширенная Телеверсия

372 | 137

10.24 ГБ




Вы не можете начинать темы
Вы не можете отвечать на сообщения
Вы не можете редактировать свои сообщения
Вы не можете удалять свои сообщения
Вы не можете добавлять вложения

Перейти:  
Для Мосгорсуда, Роскомнадзора и рекламодателей: mosgorsud-torrent[собачка]yandex.ru
 Вход
ppkBB3cker v.2 © 2008-2014 @ PPK
[ Time : 0.040s | 15 Queries | GZIP : Off ]

Торрент трекер RUTOR.IN, Не можете зайти на rutor.org? Какой новый адрес рутор? Какое зеркало рутор? Не работает rutor.org и зеркала? Тогда наш торрент специально для вас. Rutor.in неофициальное зеркало rutor. В случае если у Вас заблокирован rutor или вдруг Вы не можете на него зайти, то Вы без труда сможете скачать бесплатно и без рекламы последние новинки кино, игр, сериалов и прочего у нас, на Rutor.in. Не нужно использовать прокси, чтобы зайти на рутор, достаточно воспользоваться нашим ресурсом. Все новые фильмы, игры, сериалы, книги и музыка за 2013 и 2014 годы через торрент бесплатно. Скачивайте фильмы в хорошем качестве, игры для пк, xbox, playstation без регистрации. У нас вы найдете новые Зарубежные сериалы и Русские сериалы 2013, 2014, 2015 годов. Оставайтесь с нами, качайте любимые фильмы, игры, сериалы, книги и музыку.