img image001 image001 image001 image001 image001 image001 image001 image001 image001 image001 image001 image001 image001 image001 image001

Planets Sun Sun Sun
Статистика раздачи
Автор: PriZraK | Размер: 8.7 ГБ | Добавлен: 13 мар 2016
Раздают: 372    Качают: 240
Скачать торрент
Скачать торрент
Описание торрента

СообщениеДобавлено: 13 мар 2016 


Информация о фильме
Оригинальное название: Пасечник
Год выхода: 2016
Жанр: Детектив, криминал, боевик
Режиссер: Сергей Быстрицкий
В ролях: Анатолий Журавлёв, Анастасия Панина, Иван Шмаков, Александр Носик, Иван Агапов, Максим Глотов, Бесо Гатаев, Сергей Шарифуллин, Максим Туранцев, Владимир Яковлев (II), Федор Румянцев, Максим Фролов, Сергей Друзьяк, Екатерина Сахарова, Олег Ребров, Александра Булычёва, Ричард Бондарев, Евгений Рябов, Алексей Герасимов (II), Наталья Барило, Андрей Харыбин, Леонид Тележинский, Александр Пацевич, Сергей Макаров (V), Андрей Сергеев (IV)
О фильме:
В новых сериях главный герой Глеб Збруев отстраивает пасеку, а тем временем ждут своего часа… полицейский китель и фуражка! Глеб возвращается в органы, но не в качестве сыскаря — эту страницу своей биографии он уже перевернул. Пасечник становится участковым — вместо Васи Клюева, которому с учетом его профессиональных заслуг и образования предлагают работу следователя в Климово. Теперь кабинет Клюева находится в том же здании ОВД, где работает Глеб. «В наследство» от Василия участковому достается Перепилец. Бравая «троица» и составит в новом сезоне костяк законников, противостоящих злу в Климовском районе. Им придется расследовать дела коллекторов и черных риелторов, убийство курьера, которое было совершено из похищенного у Перепильца табельного оружия, ловить вооруженного дезертира, сбежавшего из воинской части, а также разбираться со множеством других, запутанных и опасных преступлений.
Страна: Россия
Студия: Анкор-Студио по заказу НТВ
Продолжительность: 32 x ~ 00:45:00
Перевод: Не требуется
Файл
Качество: HDTVRip
Видео: XviD, ~ 750 Кбит/с, 656х368
Аудио: MP3, 2 ch, 128 Кбит/с
Pasechnik.S02.2016.XviD.HDTVRip.by.GeneralFilmSerija.01.avi
Формат : AVI
Формат/Информация : Audio Video Interleave
Размер файла : 278 Мбайт
Продолжительность : 43 м.
Общий поток : 900 Кбит/сек
Программа кодирования : VirtualDubMod 1.5.10.3 | www.virtualdub-fr.org || (build 2550/release)
Библиотека кодирования : VirtualDubMod build 2550/release
Видео
Идентификатор : 0
Формат : MPEG-4 Visual
Профиль формата : Advanced Simple@L5
Параметр BVOP формата : 1
Параметр QPel формата : Нет
Параметр GMC формата : Без точки перехода
Параметр матрицы формата : Выборочная
Идентификатор кодека : XVID
Идентификатор кодека/Подсказка : XviD
Продолжительность : 43 м.
Битрейт : 762 Кбит/сек
Ширина : 656 пикселей
Высота : 368 пикселей
Соотношение сторон : 16:9
Частота кадров : 25,000 кадров/сек
Цветовое пространство : YUV
Субдискретизация насыщенности : 4:2:0
Битовая глубина : 8 бит
Тип развёртки : Прогрессивная
Метод сжатия : С потерями
Бит/(Пиксели*Кадры) : 0.126
Размер потока : 235 Мбайт (85%)
Библиотека кодирования : XviD 73
Аудио
Идентификатор : 1
Формат : MPEG Audio
Версия формата : Version 1
Профиль формата : Layer 3
Идентификатор кодека : 55
Идентификатор кодека/Подсказка : MP3
Продолжительность : 43 м.
Вид битрейта : Постоянный
Битрейт : 128 Кбит/сек
Каналы : 2 канала
Частота : 48,0 КГц
Метод сжатия : С потерями
Размер потока : 39,6 Мбайт (14%)
Выравнивание : Соединение по промежуткам
Продолжительность промежутка : 40 мс. (1,00 видеокадр)
Время предзагрузки промежутка : 504 мс.
Библиотека кодирования : LAME3.99r
Настройки программы : -m s -V 4 -q 0 -lowpass 17 -b 128






Релиз от:
Исходник 1080i:



   Похожие торренты   Торрент   Размер 
В этой теме нет новых непрочитанных сообщений. Пасечник [02х01-28 из 32] (2016) HDTVRip от GeneralFilm

16 | 17

7.61 ГБ

В этой теме нет новых непрочитанных сообщений. Пасечник [02х01-10 из 32] (2016) HDTVRip от GeneralFilm

75 | 44

2.72 ГБ

В этой теме нет новых непрочитанных сообщений. Пасечник [02х01-06 из 32] (2016) HDTVRip от GeneralFilm

44 | 7

1.63 ГБ

В этой теме нет новых непрочитанных сообщений. Пасечник [02х01-16 из 32] (2016) HDTVRip от GeneralFilm

244 | 62

4.34 ГБ

В этой теме нет новых непрочитанных сообщений. Пасечник [02х01-26 из 32] (2016) HDTVRip от GeneralFilm

129 | 50

7.07 ГБ

В этой теме нет новых непрочитанных сообщений. Пасечник [02х01-22 из 32] (2016) HDTVRip от GeneralFilm

101 | 69

5.98 ГБ

В этой теме нет новых непрочитанных сообщений. Пасечник [02х01-14 из 32] (2016) HDTVRip от GeneralFilm

22 | 11

3.81 ГБ




Вы не можете начинать темы
Вы не можете отвечать на сообщения
Вы не можете редактировать свои сообщения
Вы не можете удалять свои сообщения
Вы не можете добавлять вложения

Перейти:  
Для Мосгорсуда, Роскомнадзора и рекламодателей: mosgorsud-torrent[собачка]yandex.ru
 Вход
ppkBB3cker v.2 © 2008-2014 @ PPK
[ Time : 0.058s | 15 Queries | GZIP : On ]

Торрент трекер RUTOR.IN, Не можете зайти на rutor.org? Какой новый адрес рутор? Какое зеркало рутор? Не работает rutor.org и зеркала? Тогда наш торрент специально для вас. Rutor.in неофициальное зеркало rutor. В случае если у Вас заблокирован rutor или вдруг Вы не можете на него зайти, то Вы без труда сможете скачать бесплатно и без рекламы последние новинки кино, игр, сериалов и прочего у нас, на Rutor.in. Не нужно использовать прокси, чтобы зайти на рутор, достаточно воспользоваться нашим ресурсом. Все новые фильмы, игры, сериалы, книги и музыка за 2013 и 2014 годы через торрент бесплатно. Скачивайте фильмы в хорошем качестве, игры для пк, xbox, playstation без регистрации. У нас вы найдете новые Зарубежные сериалы и Русские сериалы 2013, 2014, 2015 годов. Оставайтесь с нами, качайте любимые фильмы, игры, сериалы, книги и музыку.
cron