img image001 image001 image001 image001 image001 image001 image001 image001 image001 image001 image001 image001 image001 image001 image001

Planets Sun Sun Sun
Статистика раздачи
Автор: Nickolas3434 | Размер: 1.21 ГБ | Добавлен: 15 мар 2016
Раздают: 220    Качают: 4
Скачать торрент
Скачать торрент
Описание торрента

СообщениеДобавлено: 15 мар 2016 




Информация о фильме
Название: Саранча
Год выхода: 2013
Жанр: Триллер
Режиссер: Егор Баранов
В ролях: Пётр Фёдоров, Паулина Андреева, Дмитрий Шевченко, Екатерина Волкова, Евгения Дмитриева, Максим Пинскер, Алексей Горбунов, Евгений Стычкин, Александр Голубков, Иван Щенин
О фильме:
У них не было ничего общего: Артем — простой парень из провинции, работяга и поэт, Лера — столичная штучка, чью жизнь распланировали родители. Но банальный курортный роман оборачивается обжигающей страстью, которая ломает судьбы. И хотя Лера выходит замуж за друга отца, а Артем назло женится на богатой даме постарше, их безумное влечение рушит все барьеры. Жажда плоти невыносима, и для приговоренных друг к другу любовников уже не существует ни правил, ни опасности, ни страха. И когда разрушительная страсть обагряется кровью, они уже не в силах остановиться…

Страна: Россия
Студия: Продюсерский центр «Среда»
Продолжительность: 2 x ~ 00:50:00
Перевод: Не требуется
Файл
Качество: HDTVRip-AVC
Видео: 1024х576 (16:9), 25 fps, AVC MPEG-4 (x264), [email protected] ~ 1550 kbps
Звук: 48 kHz, АС3, 2 ch, 192 kbps


General
Unique ID : 113529278247770864547096847642623576162 (0x5568F193526E3961F641BFB698958862)
Complete name : E:СериалыСаранча (2013) HDTVRIP_AVCSarancha.(01.seriya.iz.04).2013.HDTVRIP_AVC.[-=DoMiNo=-].mkv
Format : Matroska
Format version : Version 4 / Version 2
File size : 661 MiB
Duration : 49mn 47s
Overall bit rate : 1 857 Kbps
Writing application : XviD4PSP 7.0.237
Writing library : Lavf57.25.100 / Lavf57.25.100
ENCODING_INFO : MPEGTS > MKV / H264 > X264 CRF 19.5 Custom / MP2 > AC3 CBR 192kbps
Video
ID : 1
Format : AVC
Format/Info : Advanced Video Codec
Format profile : High@L4.1
Format settings, CABAC : Yes
Format settings, ReFrames : 10 frames
Codec ID : V_MPEG4/ISO/AVC
Duration : 49mn 47s
Bit rate : 1 628 Kbps
Width : 1 024 pixels
Height : 576 pixels
Display aspect ratio : 16:9
Frame rate mode : Constant
Frame rate : 25.000 fps
Color space : YUV
Chroma subsampling : 4:2:0
Bit depth : 8 bits
Scan type : Progressive
Bits/(Pixel*Frame) : 0.110
Stream size : 580 MiB (88%)
Writing library : x264 core 148 r2665M a01e339
Encoding settings : cabac=1 / ref=10 / deblock=1:-3:-3 / analyse=0x3:0x133 / me=umh / subme=10 / psy=1 / psy_rd=1.00:0.10 / mixed_ref=1 / me_range=32 / chroma_me=1 / trellis=2 / 8x8dct=1 / cqm=0 / deadzone=21,11 / fast_pskip=0 / chroma_qp_offset=-3 / threads=5 / lookahead_threads=1 / sliced_threads=0 / nr=0 / decimate=1 / interlaced=0 / bluray_compat=0 / constrained_intra=0 / bframes=9 / b_pyramid=2 / b_adapt=2 / b_bias=0 / direct=1 / weightb=1 / open_gop=0 / weightp=2 / keyint=250 / keyint_min=25 / scenecut=40 / intra_refresh=0 / rc=crf / mbtree=0 / crf=19.5 / qcomp=0.60 / qpmin=20 / qpmax=69 / qpstep=4 / ip_ratio=1.40 / pb_ratio=1.30 / aq=1:1.00
Default : Yes
Forced : No
DURATION : 00:49:47.480000000
Audio
ID : 2
Format : AC-3
Format/Info : Audio Coding 3
Mode extension : CM (complete main)
Format settings, Endianness : Big
Codec ID : A_AC3
Duration : 49mn 47s
Bit rate mode : Constant
Bit rate : 192 Kbps
Channel(s) : 2 channels
Channel positions : Front: C, LFE
Sampling rate : 48.0 KHz
Frame rate : 31.250 fps (1536 spf)
Bit depth : 16 bits
Compression mode : Lossy
Delay relative to video : 27ms
Stream size : 68.4 MiB (10%)
Language : Russian
Default : Yes
Forced : No
DURATION : 00:49:47.419000000







   Похожие торренты   Торрент   Размер 
В этой теме нет новых непрочитанных сообщений. Саранча [01-02 из 04] (2013) HDTVRip-AVC от Files-x | Расширенная Телеверсия

162 | 12

1.48 ГБ

В этой теме нет новых непрочитанных сообщений. Саранча [01-02 из 04] (2013) HDTVRip от GeneralFilm | Расширенная Телеверсия

453 | 39

1.35 ГБ

В этой теме нет новых непрочитанных сообщений. Саранча [01-02 из 04] (2013) HDTVRip 720p от GeneralFilm | Расширенная Телеверсия

833 | 27

2.49 ГБ

В этой теме нет новых непрочитанных сообщений. Саранча [01-02 из 04] (2013) WEB-DL 1080p от GeneralFilm | Расширенная Телеверсия

86 | 6

2.23 ГБ

В этой теме нет новых непрочитанных сообщений. Саранча [01-02 из 04] (2013) WEB-DL 720p от GeneralFilm | Расширенная Телеверсия

34 | 4

1.23 ГБ

В этой теме нет новых непрочитанных сообщений. Саранча [01-02 из 04] (2013) WEB-DLRip от GeneralFilm | Расширенная Телеверсия

309 | 17

1.41 ГБ

В этой теме нет новых непрочитанных сообщений. Саранча [01 из 04] (2013) HDTV 1080i от MediaClub | Расширенная Телеверсия

118 | 72

6 ГБ




Вы не можете начинать темы
Вы не можете отвечать на сообщения
Вы не можете редактировать свои сообщения
Вы не можете удалять свои сообщения
Вы не можете добавлять вложения

Перейти:  
Для Мосгорсуда, Роскомнадзора и рекламодателей: mosgorsud-torrent[собачка]yandex.ru
 Вход
ppkBB3cker v.2 © 2008-2014 @ PPK
[ Time : 0.059s | 15 Queries | GZIP : Off ]

Торрент трекер RUTOR.IN, Не можете зайти на rutor.org? Какой новый адрес рутор? Какое зеркало рутор? Не работает rutor.org и зеркала? Тогда наш торрент специально для вас. Rutor.in неофициальное зеркало rutor. В случае если у Вас заблокирован rutor или вдруг Вы не можете на него зайти, то Вы без труда сможете скачать бесплатно и без рекламы последние новинки кино, игр, сериалов и прочего у нас, на Rutor.in. Не нужно использовать прокси, чтобы зайти на рутор, достаточно воспользоваться нашим ресурсом. Все новые фильмы, игры, сериалы, книги и музыка за 2013 и 2014 годы через торрент бесплатно. Скачивайте фильмы в хорошем качестве, игры для пк, xbox, playstation без регистрации. У нас вы найдете новые Зарубежные сериалы и Русские сериалы 2013, 2014, 2015 годов. Оставайтесь с нами, качайте любимые фильмы, игры, сериалы, книги и музыку.