img image001 image001 image001 image001 image001 image001 image001 image001 image001 image001 image001 image001 image001 image001 image001

Planets Sun Sun Sun
Статистика раздачи
Автор: Nickolas3434 | Размер: 2.17 ГБ | Добавлен: 19 мар 2016
Раздают: 63    Качают: 66
Скачать торрент
Скачать торрент
Описание торрента

СообщениеДобавлено: 19 мар 2016 


Информация о фильме
Оригинальное название: Профессионал
Год выхода: 2014
Жанр: Боевик
Режиссер: Алан Дзоциев
В ролях: Алексей Лобанов, Константин Стрельников, Игорь Лагутин, Евгения Игумнова, Сергей Юшкевич, Андрей Горбачёв, Юрий Батурин, Анатолий Лобоцкий, Мария Решавская, Владимир Артемов, Валерий Баринов, Сергей Жигунов, Юрий Ицков, Михаил Черняк, Александр Марушев, Сергей Амосов, Руслан Барабанов, Анатолий Ильченко, Алексей Федотов, Руслан Кацагаджиев
О фильме:
Сбежав из тюрьмы в Джакарте, где он провёл в заключении долгих четырнадцать лет, разведчик Андрей Зубов возвращается на родину, чтобы найти причины провала своей опергруппы и наказать виновников гибели жены. Преодолев тысячи километров, Зубов вынужден столкнуться с новым предательством, он становится объектом преследования своих бывших коллег, среди которых многие заинтересованы в том, чтобы он замолчал и исчез навсегда. Но, благодаря помощи новых и старых друзей, ему всё-таки удаётся невозможное - настоящий профессионал в своём деле, Зубов вступает в борьбу с преступной системой и побеждает её. Но многие вопросы, мучающие Андрея, так и остаются без ответа...
Страна: Россия
Студия: Студия "Панорама"
Продолжительность: 8 x ~ 00:45:00
Перевод: Не требуется
Файл
Качество: HDTVRip
Видео: XviD, ~ 750 Кбит/с, 624х352
Аудио: MP3, 2 ch, 128 Кбит/с
Полное имя : Professional.2014.XviD.HDTVRip.by.GeneralFilmSerija.01.avi
Формат : AVI
Формат/Информация : Audio Video Interleave
Размер файла : 278 Мбайт
Продолжительность : 44 м.
Общий поток : 880 Кбит/сек
Программа кодирования : VirtualDubMod 1.5.10.3 | www.virtualdub-fr.org || (build 2550/release)
Библиотека кодирования : VirtualDubMod build 2550/release
Видео
Идентификатор : 0
Формат : MPEG-4 Visual
Профиль формата : Advanced Simple@L5
Параметр BVOP формата : 1
Параметр QPel формата : Нет
Параметр GMC формата : Без точки перехода
Параметр матрицы формата : Выборочная
Идентификатор кодека : XVID
Идентификатор кодека/Подсказка : XviD
Продолжительность : 44 м.
Битрейт : 742 Кбит/сек
Ширина : 624 пикселя
Высота : 352 пикселя
Соотношение сторон : 16:9
Частота кадров : 25,000 кадров/сек
Цветовое пространство : YUV
Субдискретизация насыщенности : 4:2:0
Битовая глубина : 8 бит
Тип развёртки : Прогрессивная
Метод сжатия : С потерями
Бит/(Пиксели*Кадры) : 0.135
Размер потока : 235 Мбайт (84%)
Библиотека кодирования : XviD 73
Аудио
Идентификатор : 1
Формат : MPEG Audio
Версия формата : Version 1
Профиль формата : Layer 3
Идентификатор кодека : 55
Идентификатор кодека/Подсказка : MP3
Продолжительность : 44 м.
Вид битрейта : Постоянный
Битрейт : 128 Кбит/сек
Каналы : 2 канала
Частота : 48,0 КГц
Метод сжатия : С потерями
Размер потока : 40,5 Мбайт (15%)
Выравнивание : Соединение по промежуткам
Продолжительность промежутка : 40 мс. (1,00 видеокадр)
Время предзагрузки промежутка : 504 мс.
Библиотека кодирования : LAME3.99r
Настройки программы : -m s -V 4 -q 0 -lowpass 17 -b 128






Релиз от:



   Похожие торренты   Торрент   Размер 
В этой теме нет новых непрочитанных сообщений. Профессионал [01-06 из 16] (2014) HDTVRip от GeneralFilm

213 | 37

1.63 ГБ

В этой теме нет новых непрочитанных сообщений. Профессионал [01-04 из 16] (2014) HDTVRip от GeneralFilm

113 | 3

1.09 ГБ

В этой теме нет новых непрочитанных сообщений. Профессионал [01-02 из 16] (2014) HDTVRip от GeneralFilm

9 | 2

556.22 МБ

В этой теме нет новых непрочитанных сообщений. Профессионал [01-10 из 16] (2014) HDTVRip от GeneralFilm

57 | 6

2.72 ГБ

В этой теме нет новых непрочитанных сообщений. Профессионал [01-10 из 16] (2014) HDTV 1080i от GeneralFilm

14 | 4

24.99 ГБ

В этой теме нет новых непрочитанных сообщений. Профессионал [01-02 из 16] (2014) SATRip от Generalfilm-Files-x

890 | 40

1.07 ГБ

В этой теме нет новых непрочитанных сообщений. Профессионал [01-14 из 16] (2014) SATRip от Generalfilm-Files-x

3259 | 1362

8.6 ГБ




Вы не можете начинать темы
Вы не можете отвечать на сообщения
Вы не можете редактировать свои сообщения
Вы не можете удалять свои сообщения
Вы не можете добавлять вложения

Перейти:  
Для Мосгорсуда, Роскомнадзора и рекламодателей: mosgorsud-torrent[собачка]yandex.ru
 Вход
ppkBB3cker v.2 © 2008-2014 @ PPK
[ Time : 0.025s | 16 Queries | GZIP : Off ]

Торрент трекер RUTOR.IN, Не можете зайти на rutor.org? Какой новый адрес рутор? Какое зеркало рутор? Не работает rutor.org и зеркала? Тогда наш торрент специально для вас. Rutor.in неофициальное зеркало rutor. В случае если у Вас заблокирован rutor или вдруг Вы не можете на него зайти, то Вы без труда сможете скачать бесплатно и без рекламы последние новинки кино, игр, сериалов и прочего у нас, на Rutor.in. Не нужно использовать прокси, чтобы зайти на рутор, достаточно воспользоваться нашим ресурсом. Все новые фильмы, игры, сериалы, книги и музыка за 2013 и 2014 годы через торрент бесплатно. Скачивайте фильмы в хорошем качестве, игры для пк, xbox, playstation без регистрации. У нас вы найдете новые Зарубежные сериалы и Русские сериалы 2013, 2014, 2015 годов. Оставайтесь с нами, качайте любимые фильмы, игры, сериалы, книги и музыку.