img image001 image001 image001 image001 image001 image001 image001 image001 image001 image001 image001 image001 image001 image001 image001

Planets Sun Sun Sun
Статистика раздачи
Автор: Nickolas3434 | Размер: 19.72 ГБ | Добавлен: 23 мар 2016
Раздают: 3    Качают: 1
Скачать торрент
Скачать торрент
Описание торрента

СообщениеДобавлено: 23 мар 2016 


Информация о фильме
Оригинальное название: Профессионал
Год выхода: 2014
Жанр: Боевик
Режиссер: Алан Дзоциев
В ролях: Алексей Лобанов, Константин Стрельников, Игорь Лагутин, Евгения Игумнова, Сергей Юшкевич, Андрей Горбачёв, Юрий Батурин, Анатолий Лобоцкий, Мария Решавская, Владимир Артемов, Валерий Баринов, Сергей Жигунов, Юрий Ицков, Михаил Черняк, Александр Марушев, Сергей Амосов, Руслан Барабанов, Анатолий Ильченко, Алексей Федотов, Руслан Кацагаджиев
О фильме:
Сбежав из тюрьмы в Джакарте, где он провёл в заключении долгих четырнадцать лет, разведчик Андрей Зубов возвращается на родину, чтобы найти причины провала своей опергруппы и наказать виновников гибели жены. Преодолев тысячи километров, Зубов вынужден столкнуться с новым предательством, он становится объектом преследования своих бывших коллег, среди которых многие заинтересованы в том, чтобы он замолчал и исчез навсегда. Но, благодаря помощи новых и старых друзей, ему всё-таки удаётся невозможное - настоящий профессионал в своём деле, Зубов вступает в борьбу с преступной системой и побеждает её. Но многие вопросы, мучающие Андрея, так и остаются без ответа...
Страна: Россия
Студия: Студия "Панорама"
Продолжительность: 10 x ~ 00:45:00
Перевод: Не требуется
Файл
Качество: HDTV (1080i)
Видео: MPEG-4 AVC, ~ 6.1 Mбит/с, 1920x1080
Аудио: MP2, 2 ch, 192 Кбит/с
Общее
Идентификатор : 1 (0x1)
Полное имя : Professional.2014.HDTV.1080i.by.GeneralFilmSerija.01.ts
Формат : MPEG-TS
Размер файла : 2,05 Гбайт
Продолжительность : 44 м.
Режим общего битрейта : Переменный
Общий поток : 6644 Кбит/сек
Видео
Идентификатор : 201 (0xC9)
Идентификатор меню : 2201 (0x899)
Формат : AVC
Формат/Информация : Advanced Video Codec
Профиль формата : High@L4
Параметр CABAC формата : Да
Параметр ReFrames формата : 4 кадра
Идентификатор кодека : 27
Продолжительность : 44 м.
Битрейт : 6121 Кбит/сек
Ширина : 1920 пикселей
Высота : 1080 пикселей
Соотношение сторон : 16:9
Частота кадров : 25,000 кадров/сек
Стандарт вещания : Component
Цветовое пространство : YUV
Субдискретизация насыщенности : 4:2:0
Битовая глубина : 8 бит
Тип развёртки : Чересстрочная
Метод сохранения типа развёртки : Раздельные поля
Порядок развёртки : Верхнее поле первое
Бит/(Пиксели*Кадры) : 0.118
Размер потока : 1,89 Гбайт (92%)
Цветовой диапазон : Limited
Основные цвета : BT.709
Характеристики трансфера : BT.709
Коэффициенты матрицы : BT.709
Аудио
Идентификатор : 301 (0x12D)
Идентификатор меню : 2201 (0x899)
Формат : MPEG Audio
Версия формата : Version 1
Профиль формата : Layer 2
Идентификатор кодека : 3
Продолжительность : 44 м.
Вид битрейта : Постоянный
Битрейт : 192 Кбит/сек
Каналы : 2 канала
Частота : 48,0 КГц
Метод сжатия : С потерями
Задержка видео : -40 мс.
Размер потока : 60,7 Мбайт (3%)
Язык : English




Релиз от:



   Похожие торренты   Торрент   Размер 
В этой теме нет новых непрочитанных сообщений. Профессионал [01-08 из 16] (2014) HDTV 1080i от GeneralFilm

29 | 46

15.61 ГБ

В этой теме нет новых непрочитанных сообщений. Профессионал [01-10 из 16] (2014) HDTV 1080i от GeneralFilm

14 | 4

24.99 ГБ

В этой теме нет новых непрочитанных сообщений. Профессионал [01-08 из 16] (2014) HDTVRip от GeneralFilm

63 | 66

2.17 ГБ

В этой теме нет новых непрочитанных сообщений. Профессионал [01-06 из 16] (2014) HDTVRip от GeneralFilm

213 | 37

1.63 ГБ

В этой теме нет новых непрочитанных сообщений. Профессионал [01-10 из 16] (2014) HDTVRip от GeneralFilm

57 | 6

2.72 ГБ

В этой теме нет новых непрочитанных сообщений. Профессионал [01-02 из 16] (2014) HDTVRip от GeneralFilm

9 | 2

556.22 МБ

В этой теме нет новых непрочитанных сообщений. Профессионал [01-04 из 16] (2014) HDTVRip от GeneralFilm

113 | 3

1.09 ГБ




Вы не можете начинать темы
Вы не можете отвечать на сообщения
Вы не можете редактировать свои сообщения
Вы не можете удалять свои сообщения
Вы не можете добавлять вложения

Перейти:  
Для Мосгорсуда, Роскомнадзора и рекламодателей: mosgorsud-torrent[собачка]yandex.ru
 Вход
ppkBB3cker v.2 © 2008-2014 @ PPK
[ Time : 0.028s | 16 Queries | GZIP : Off ]

Торрент трекер RUTOR.IN, Не можете зайти на rutor.org? Какой новый адрес рутор? Какое зеркало рутор? Не работает rutor.org и зеркала? Тогда наш торрент специально для вас. Rutor.in неофициальное зеркало rutor. В случае если у Вас заблокирован rutor или вдруг Вы не можете на него зайти, то Вы без труда сможете скачать бесплатно и без рекламы последние новинки кино, игр, сериалов и прочего у нас, на Rutor.in. Не нужно использовать прокси, чтобы зайти на рутор, достаточно воспользоваться нашим ресурсом. Все новые фильмы, игры, сериалы, книги и музыка за 2013 и 2014 годы через торрент бесплатно. Скачивайте фильмы в хорошем качестве, игры для пк, xbox, playstation без регистрации. У нас вы найдете новые Зарубежные сериалы и Русские сериалы 2013, 2014, 2015 годов. Оставайтесь с нами, качайте любимые фильмы, игры, сериалы, книги и музыку.