img image001 image001 image001 image001 image001 image001 image001 image001 image001 image001 image001 image001 image001 image001 image001

Planets Sun Sun Sun
Статистика раздачи
Автор: Nickolas3434 | Размер: 6.53 ГБ | Добавлен: 23 мар 2016
Раздают: 228    Качают: 219
Скачать торрент
Скачать торрент
Описание торрента

СообщениеДобавлено: 23 мар 2016 

Сорвиголова / Daredevil (2016) WEBRip-AVC


Производство: США, ABC Television Studio, Marvel Entertainment, Walt Disney Company
Жанр: боевик, драма, криминал
Режиссер: Фил Абрахам, Стивен С. ДеНайт, Кен Джиротти
Актеры: Чарли Кокс, Дебора Энн Уолл, Элден Хенсон, Розарио Доусон, Винсент Д’Онофрио, Айелет Зурер и др.
Описание:
Адвокат Мэтт Мердок, лишился зрения в девять лет из-за аварии, в которой перевернулся грузовик с радиоактивной жидкостью. Химия попала маленькому Мэтту в глаза, и он навсегда ослеп. Вдобавок ко всему мальчик, выросший в Адской кухне, самом опасном и бедном районе Нью-Йорка, вскоре после происшествия потерял отца и угодил в приют. Со временем Мердок осознал, что остальные органы чувств у него значительно обострились. Не без помощи такого же слепого наставника Стика (Скотт Гленн) Мэтт научился не только адаптироваться к жизни инвалида, но и оборачивать новые способности в свою пользу. Он решил очистить Адскую кухню от преступности, для чего стал адвокатом. Днем он — законопослушный юрист Мэттью Мердок, а ночью — отчаянный каратель Сорвиголова.

Дата мировой премьеры: 02 апреля 2015
Релиз от: K.E.N (NNM-CLUB)
Продолжительность: ~ 00:53:00 серия
Качество видео: WEBRip-AVC
Перевод: Многоголосый закадровый, профессиональный - BaibaKo
Субтитры: Отсутствуют
Видео: AVC, 1024x576 (16:9), 23.976 fps, 1 256 Kbps (0.089 bit/pixel)
Аудио: AC-3, 48.0 KHz, 2 ch, 192 Kbps (Russian) - BaibaKo
Формат : Matroska
Версия формата : Version 2
Размер файла : 499 Мбайт
Продолжительность : 49 м.
Общий поток : 1406 Кбит/сек
Дата кодирования : UTC 2016-03-20 08:47:59
Программа кодирования : mkvmerge v5.3.0 ('I could have danced') built on Feb 9 2012 10:38:07
Библиотека кодирования : libebml v1.2.3 + libmatroska v1.3.0
Attachment : Yes
Видео
Идентификатор : 1
Формат : AVC
Формат/Информация : Advanced Video Codec
Профиль формата : High@L4.1
Параметр CABAC формата : Да
Параметр ReFrames формата : 8 кадров
Идентификатор кодека : V_MPEG4/ISO/AVC
Продолжительность : 49 м.
Битрейт : 1212 Кбит/сек
Ширина : 1024 пикселя
Высота : 576 пикселей
Соотношение сторон : 16:9
Режим частоты кадров : Постоянный
Частота кадров : 23,976 кадра/сек
Цветовое пространство : YUV
Субдискретизация насыщенности : 4:2:0
Битовая глубина : 8 бит
Тип развёртки : Прогрессивная
Бит/(Пиксели*Кадры) : 0.086
Размер потока : 421 Мбайт (84%)
Библиотека кодирования : x264 core 146 r2538 121396c
Настройки программы : cabac=1 / ref=8 / deblock=1:-2:-2 / analyse=0x3:0x133 / me=umh / subme=9 / psy=1 / psy_rd=1.00:0.00 / mixed_ref=1 / me_range=24 / chroma_me=1 / trellis=2 / 8x8dct=1 / cqm=0 / deadzone=21,11 / fast_pskip=0 / chroma_qp_offset=-2 / threads=2 / lookahead_threads=2 / sliced_threads=0 / nr=0 / decimate=0 / interlaced=0 / bluray_compat=0 / constrained_intra=0 / bframes=6 / b_pyramid=2 / b_adapt=2 / b_bias=0 / direct=3 / weightb=1 / open_gop=0 / weightp=2 / keyint=240 / keyint_min=23 / scenecut=40 / intra_refresh=0 / rc=2pass / mbtree=0 / bitrate=1212 / ratetol=1.0 / qcomp=0.60 / qpmin=0 / qpmax=69 / qpstep=4 / cplxblur=20.0 / qblur=0.5 / ip_ratio=1.40 / pb_ratio=1.30 / aq=1:0.70
Default : Да
Forced : Нет
Аудио
Идентификатор : 2
Формат : AC-3
Формат/Информация : Audio Coding 3
Расширение режима : CM (complete main)
Параметр Endianness формата : Big
Идентификатор кодека : A_AC3
Продолжительность : 49 м.
Вид битрейта : Постоянный
Битрейт : 192 Кбит/сек
Каналы : 2 канала
Расположение каналов : Front: L R
Частота : 48,0 КГц
Битовая глубина : 16 бит
Метод сжатия : С потерями
Размер потока : 68,1 Мбайт (14%)
Default : Да
Forced : Нет

Скриншоты:



   Похожие торренты   Торрент   Размер 
В этой теме нет новых непрочитанных сообщений. Сорвиголова / Daredevil [02x01 из 13] (2016) WEBRip | BaibaKo

71 | 42

2.73 ГБ

В этой теме нет новых непрочитанных сообщений. Сорвиголова / Daredevil [02x01 из 13] (2016) WEBRip 720p | BaibaKo

51 | 15

6.91 ГБ

В этой теме нет новых непрочитанных сообщений. Сорвиголова / Daredevil [02х01 из 13] (2016) WEBRip-AVC от NNM-CLUB | NewStudio, Jaskier

79 | 0

656.05 МБ

В этой теме нет новых непрочитанных сообщений. Сорвиголова / Daredevil [S02] (2016) WEBRip 1080p | LostFilm, NewStudio, IdeaFilm, Jaskier, BaibaKo

14 | 14

65.66 ГБ

В этой теме нет новых непрочитанных сообщений. Сорвиголова, 2 сезон 1-13 серии из 13 / Daredevil [LostFilm | NewStudio | IdeaFilm | Jaskier | BaibaKo] (Фил Абрахам) [2016, боевик, драма, криминал, WEBRip 2160p, 5P, SUB]

2 | 1

181.9 ГБ

В этой теме нет новых непрочитанных сообщений. Сорвиголова / Daredevil [S02] (2016) WEBRip | IdeaFilm

83 | 100

9.39 ГБ

В этой теме нет новых непрочитанных сообщений. Сорвиголова / Daredevil [02х01 из 13] (2016) WEBRip | LostFilm

22 | 0

540.17 МБ




Вы не можете начинать темы
Вы не можете отвечать на сообщения
Вы не можете редактировать свои сообщения
Вы не можете удалять свои сообщения
Вы не можете добавлять вложения

Перейти:  
Для Мосгорсуда, Роскомнадзора и рекламодателей: mosgorsud-torrent[собачка]yandex.ru
 Вход
ppkBB3cker v.2 © 2008-2014 @ PPK
[ Time : 0.040s | 18 Queries | GZIP : Off ]

cron