img image001 image001 image001 image001 image001 image001 image001 image001 image001 image001 image001 image001 image001 image001 image001

Planets Sun Sun Sun
Статистика раздачи
Автор: Nickolas3434 | Размер: 3.3 ГБ | Добавлен: 26 мар 2016
Раздают: 65    Качают: 275
Скачать торрент
Скачать торрент
Описание торрента

СообщениеДобавлено: 26 мар 2016 

• Флэш / The Flash •

Страна: США
Производство: Berlanti Productions, DC Entertainment, Warner Bros. Television
Год выпуска: 2015
Жанр: фантастика, фэнтези, боевик, драма, приключения
Режиссёр: Дэвид Наттер
В ролях: Джейк Макдорман, Брэдли Купер, Дженнифер Карпентер, Хилл Харпер, Мэри Элизабет Мастрантонио, Генри Джальярди, Майкл Джеймс Шоу, Тревор Брукс, Джина Диас и др.
Перевод: Профессиональный (многоголосый закадровый) от LostFilm
Автор рипа: ProT1gR
Описание: Из-за несчастного случая судмедэксперт Барри Аллен приобретает способность передвигаться с невероятной скоростью. Этот случай делает из него супергероя, которым он всегда мечтал стать…
Эпизод 01. Человек, который спас Централ-сити (The Man Who Saved Central City)
Эпизод 02. Флэш двух миров (Flash of Two Worlds)
Эпизод 03. Криминальная семейка (Family of Rogues)
Эпизод 04. Ярость Огненного Шторма (The Fury of Firestorm)
Эпизод 05. Тьма и свет (The Darkness and the Light)
Эпизод 06. Выход Зума (Enter Zoom)
Эпизод 07. Воитель джунглей (Gorilla Warfare)
Эпизод 08. Легенды сегодняшнего дня (Legends of Today)
Эпизод 09. Бежать, чтобы стоять на месте (Running to Stand Still)
Эпизод 10. Потенциальная энергия (Potential Energy)
Эпизод 11. Возвращение обратного Флэша (The Reverse-Flash Returns)
Эпизод 12. Скорость (Fast Lane)
Эпизод 13. Добро пожаловать на Землю-2 (Welcome to Earth-2)
Эпизод 14. Побег с Земли-2 (Escape from Earth-2)


Качество: WEB-DLRip
Продолжительность: по ~ 00:43:00
Формат: MP4
Разрешение экрана: 640x360
Видео кодек: H.264
Аудио кодек: AAC-LC
Свойства видео: 640x360 (16:9), 23.976 fps, 600 kbps (0.109 bit/pixel)
Свойства аудио: 48.0 KHz, 2 ch, 128 kbps
General
Complete name : The.Flash.S02E14.WEB-DLRip.rus.LostFilm.TV.mp4
Format : MPEG-4
Format profile : Base Media
Codec ID : isom (isom/avc1/iso6)
File size : 188 MiB
Duration : 41mn 33s
Overall bit rate mode : Variable
Overall bit rate : 632 Kbps
Encoded date : UTC 2016-02-20 16:18:59
Tagged date : UTC 2016-02-20 16:18:59
Video
ID : 1
Format : AVC
Format/Info : Advanced Video Codec
Format profile : [email protected]
Format settings, CABAC : Yes
Format settings, ReFrames : 9 frames
Codec ID : avc1
Codec ID/Info : Advanced Video Coding
Duration : 41mn 32s
Bit rate : 500 Kbps
Maximum bit rate : 1 456 Kbps
Width : 640 pixels
Height : 360 pixels
Display aspect ratio : 16:9
Frame rate mode : Constant
Frame rate : 23.976 (24000/1001) fps
Color space : YUV
Chroma subsampling : 4:2:0
Bit depth : 8 bits
Scan type : Progressive
Bits/(Pixel*Frame) : 0.091
Stream size : 149 MiB (79%)
Title : [email protected]
Writing library : x264 core 146 r2538 121396c
Encoding settings : cabac=1 / ref=9 / deblock=1:-3:-3 / analyse=0x3:0x113 / me=umh / subme=11 / psy=1 / psy_rd=1.00:0.00 / mixed_ref=1 / me_range=32 / chroma_me=1 / trellis=2 / 8x8dct=1 / cqm=0 / deadzone=21,11 / fast_pskip=0 / chroma_qp_offset=-2 / threads=6 / lookahead_threads=1 / sliced_threads=0 / nr=0 / decimate=1 / interlaced=0 / bluray_compat=0 / constrained_intra=0 / bframes=9 / b_pyramid=2 / b_adapt=2 / b_bias=0 / direct=3 / weightb=1 / open_gop=0 / weightp=2 / keyint=240 / keyint_min=23 / scenecut=40 / intra_refresh=0 / rc_lookahead=40 / rc=2pass / mbtree=0 / bitrate=500 / ratetol=1.0 / qcomp=0.60 / qpmin=0 / qpmax=69 / qpstep=4 / cplxblur=20.0 / qblur=0.5 / vbv_maxrate=14000 / vbv_bufsize=14000 / nal_hrd=none / filler=0 / ip_ratio=1.40 / pb_ratio=1.30 / aq=1:1.00
Encoded date : UTC 2016-02-20 16:18:59
Tagged date : UTC 2016-02-20 16:19:13
Audio
ID : 2
Format : AAC
Format/Info : Advanced Audio Codec
Format profile : LC
Codec ID : 40
Duration : 41mn 33s
Bit rate mode : Variable
Bit rate : 128 Kbps
Maximum bit rate : 152 Kbps
Channel(s) : 2 channels
Channel positions : Front: L R
Sampling rate : 48.0 KHz
Frame rate : 46.875 fps (1024 spf)
Compression mode : Lossy
Stream size : 38.0 MiB (20%)
Encoded date : UTC 2016-02-20 14:47:49
Tagged date : UTC 2016-02-20 16:19:13





   Похожие торренты   Торрент   Размер 
В этой теме нет новых непрочитанных сообщений. Флэш / The Flash [02х01-15 из 23] (2015-2016) WEB-DLRip | КПК | LostFilm

179 | 476

3.12 ГБ

В этой теме нет новых непрочитанных сообщений. Флэш / The Flash [02х01-14 из 23] (2015-2016) WEB-DLRip | КПК | LostFilm

132 | 137

2.93 ГБ

В этой теме нет новых непрочитанных сообщений. Флэш / The Flash [02х01-19] (2015) WEB-DLRip | КПК | LostFilm

42 | 71

3.57 ГБ

В этой теме нет новых непрочитанных сообщений. Флэш / The Flash [02х01-03 из 23] (2015) WEB-DLRip | КПК | LostFilm

46 | 85

1.09 ГБ

В этой теме нет новых непрочитанных сообщений. Флэш / The Flash [02х01 из 22] (2015) WEB-DLRip | LostFilm

468 | 7

586.32 МБ

В этой теме нет новых непрочитанных сообщений. Флэш / The Flash [02х01-08 из 23] (2015) WEB-DLRip | КПК | LostFilm

41 | 119

1.75 ГБ

В этой теме нет новых непрочитанных сообщений. Флэш / The Flash [02х01-04 из 23] (2015) WEB-DLRip | КПК | LostFilm

61 | 99

785.07 МБ




Вы не можете начинать темы
Вы не можете отвечать на сообщения
Вы не можете редактировать свои сообщения
Вы не можете удалять свои сообщения
Вы не можете добавлять вложения

Перейти:  
Для Мосгорсуда, Роскомнадзора и рекламодателей: mosgorsud-torrent[собачка]yandex.ru
 Вход
ppkBB3cker v.2 © 2008-2014 @ PPK
[ Time : 0.030s | 17 Queries | GZIP : Off ]

Торрент трекер RUTOR.IN, Не можете зайти на rutor.org? Какой новый адрес рутор? Какое зеркало рутор? Не работает rutor.org и зеркала? Тогда наш торрент специально для вас. Rutor.in неофициальное зеркало rutor. В случае если у Вас заблокирован rutor или вдруг Вы не можете на него зайти, то Вы без труда сможете скачать бесплатно и без рекламы последние новинки кино, игр, сериалов и прочего у нас, на Rutor.in. Не нужно использовать прокси, чтобы зайти на рутор, достаточно воспользоваться нашим ресурсом. Все новые фильмы, игры, сериалы, книги и музыка за 2013 и 2014 годы через торрент бесплатно. Скачивайте фильмы в хорошем качестве, игры для пк, xbox, playstation без регистрации. У нас вы найдете новые Зарубежные сериалы и Русские сериалы 2013, 2014, 2015 годов. Оставайтесь с нами, качайте любимые фильмы, игры, сериалы, книги и музыку.