img image001 image001 image001 image001 image001 image001 image001 image001 image001 image001 image001 image001 image001 image001 image001

Planets Sun Sun Sun
Статистика раздачи
Автор: Nickolas3434 | Размер: 4.06 ГБ | Добавлен: 27 мар 2016
Раздают: 29    Качают: 2
Скачать торрент
Скачать торрент
Описание торрента

СообщениеДобавлено: 27 мар 2016 


Информация о фильме
Название: Счастливая долина
Оригинальное название: Happy Valley
Год выхода: 2016
Жанр: драма, криминал
Режиссер: Эрос Лин, Тим Файвелл, Сэлли Вейнрайт
В ролях: Сара Ланкашир, Стив Пембертон, Джеймс Нортон, Адам Лонг, Джо Армстронг, Джордж Костиган, Шиван Финнеран, Чарли Мерфи, Джилл Бейкер
О фильме:
Кэтрин Кэйвуд — сержант полиции Западного Йоркшира. Во время ее дежурства в участок приходит бухгалтер Кевин, чтобы заявить о преступлении. Он очень нервничает и не хочет сообщать детали. Затем выясняется, что когда-то Кевин придумал похитить дочь своего босса и использовать выкуп, чтобы оплатить частную школу для своих детей, и вот теперь местный наркоторговец воплотил фантазию Кевина в жизнь.

Страна: Великобритания
Студия: British Broadcasting Corporation (BBC), Red Production Company
Продолжительность: ~00:58:00 серия
Перевод: Любительский многоголосый [Victory-Films]
Файл
Кодек: XviD
Качество: HDTVRip
Видео: 720x404, 1 593 Kbps, 25.000 fps fps
Звук: MP3, 192 Kbps, 2 channels
General
Complete name : /home/roma/Відео/Счастливая долина (Happy Valley)/Счастливая долина 2 - 2016 - Victory-Films/Happy.Valley.S02E01.HDTV. - Victory-Films.avi
Format : AVI
Format/Info : Audio Video Interleave
File size : 751 MiB
Duration : 58mn 25s
Overall bit rate : 1 798 Kbps
Writing application : Lavf54.63.104
Video
ID : 0
Format : xvid
Codec ID : xvid
Duration : 58mn 24s
Bit rate : 1 593 Kbps
Width : 720 pixels
Height : 404 pixels
Display aspect ratio : 16:9
Frame rate : 25.000 fps
Scan type : Progressive
Bits/(Pixel*Frame) : 0.219
Stream size : 666 MiB (89%)
Audio
ID : 1
Format : MPEG Audio
Format version : Version 1
Format profile : Layer 3
Mode : Joint stereo
Mode extension : MS Stereo
Codec ID : 55
Codec ID/Hint : MP3
Duration : 58mn 25s
Bit rate mode : Constant
Bit rate : 192 Kbps
Channel(s) : 2 channels
Sampling rate : 48.0 KHz
Compression mode : Lossy
Stream size : 80.2 MiB (11%)
Alignment : Aligned on interleaves
Interleave, duration : 24 ms (0.60 video frame)

Семпл

Релиз от: Victory-Films



   Похожие торренты   Торрент   Размер 
В этой теме нет новых непрочитанных сообщений. Счастливая долина / Happy Valley [02x01 из 06] (2016) HDTVRip от Victory-Films | L

5 | 3

751.43 МБ

В этой теме нет новых непрочитанных сообщений. Счастливая долина / Happy Valley [02x01-03 из 06] (2016) HDTVRip от Victory-Films | L

51 | 18

2.07 ГБ

В этой теме нет новых непрочитанных сообщений. Счастливая долина / Happy Valley [02x01-05 из 06] (2016) HDTVRip от Victory-Films | L

57 | 10

3.38 ГБ

В этой теме нет новых непрочитанных сообщений. Счастливая долина / Happy Valley [02x01-02 из 06] (2016) HDTVRip от Victory-Films | L

31 | 6

1.42 ГБ

В этой теме нет новых непрочитанных сообщений. Счастливая долина / Happy Valley [02x01-04 из 06] (2016) HDTVRip от Victory-Films | L

55 | 49

2.69 ГБ

В этой теме нет новых непрочитанных сообщений. Счастливая долина / Happy Valley [S02] (2016) HDTVRip 720p | L

1 | 0

6.53 ГБ

В этой теме нет новых непрочитанных сообщений. Счастливая долина / Happy Valley [s01] (2014) HDTVRip | L

52 | 9

3.21 ГБ




Вы не можете начинать темы
Вы не можете отвечать на сообщения
Вы не можете редактировать свои сообщения
Вы не можете удалять свои сообщения
Вы не можете добавлять вложения

Перейти:  
Для Мосгорсуда, Роскомнадзора и рекламодателей: mosgorsud-torrent[собачка]yandex.ru
 Вход
ppkBB3cker v.2 © 2008-2014 @ PPK
[ Time : 0.049s | 16 Queries | GZIP : Off ]

cron