img image001 image001 image001 image001 image001 image001 image001 image001 image001 image001 image001 image001 image001 image001 image001

Planets Sun Sun Sun
Статистика раздачи
Автор: Nickolas3434 | Размер: 1.83 ГБ | Добавлен: 30 мар 2016
Раздают: 92    Качают: 54
Скачать торрент
Скачать торрент
Описание торрента

СообщениеДобавлено: 30 мар 2016 


Информация о фильме
Название: Хроники Шаннары
Оригинальное название: The Shannara Chronicles
Год выхода: 2016
Жанр: Фантастика, фэнтези, приключения
Режиссер: Брэд Тернер, Джонатан Либесман, Джеймс Маршалл
В ролях: Остин Роберт Батлер, Поппи Дрейтон, Ивана Бакеро, Ману Беннетт, Аарон Якубенко, Эмилия Бёрнс, Джон Рис-Дэвис, Маркус Ванко, Брук Уильямс, Дэниэл МакФерсон
О фильме:
События сериала происходят в далёком будущем. Войны разделили Северную Америку на 4 части. На какой-то из них обитают эльфы, на иной - люди, на третьей - тролли и на четвёртой - дворфы. Основными персонажами сериала окажутся отпрыски древнего рода эльфов - Шаннара. Именно от них будет зависеть будущая судьба планеты...

Страна: США
Студия: MTV, Farah Films, Music Television (MTV), Sonar Entertainment
Продолжительность: 1 x 01:21:49, 8 x ~ 00:42:00
Перевод: Профессиональный (многоголосый, закадровый) [AlexFilm]
Файл
Формат: MP4
Качество: WEB-DLRip | КПК
Видео: MPEG-4 AVC (x264), 640x360, ~500 kbps, 23.976 fps
Аудио: AAC LC, 48.0 KHz, 2 ch, 128 Kbps
Субтитры: Нет
Семпл

Complete name : E:KinoHroniki.Shannary.AVC.KPK.GFHroniki.Shannary.S01.2016.AVC.WEB-DLRip.KPK.AF.GFHroniki.Shannary.s01e03.2016.AVC.WEB-DLRip.KPK.AF.GF.mp4
Format : MPEG-4
Codec ID : M4V
File size : 189 MiB
Duration : 41mn 40s
Overall bit rate mode : Variable
Overall bit rate : 634 Kbps
Writing application : Lavf53.19.0
Video
ID : 1
Format : AVC
Format/Info : Advanced Video Codec
Format profile : High@L4.1
Format settings, CABAC : Yes
Format settings, ReFrames : 8 frames
Codec ID : avc1
Codec ID/Info : Advanced Video Coding
Duration : 41mn 40s
Source duration : 13mn 2s
Bit rate : 500 Kbps
Width : 640 pixels
Height : 360 pixels
Display aspect ratio : 16:9
Frame rate mode : Constant
Frame rate : 23.976 fps
Color space : YUV
Chroma subsampling : 4:2:0
Bit depth : 8 bits
Scan type : Progressive
Bits/(Pixel*Frame) : 0.091
Stream size : 149 MiB (79%)
Source stream size : 149 MiB (79%)
Writing library : x264 core 130 r2273 b3065e6
Encoding settings : cabac=1 / ref=8 / deblock=1:-2:-2 / analyse=0x3:0x133 / me=umh / subme=10 / psy=1 / psy_rd=1.00:0.00 / mixed_ref=1 / me_range=24 / chroma_me=1 / trellis=2 / 8x8dct=1 / cqm=0 / deadzone=21,11 / fast_pskip=1 / chroma_qp_offset=-2 / threads=12 / lookahead_threads=2 / sliced_threads=0 / nr=0 / decimate=0 / interlaced=0 / bluray_compat=0 / constrained_intra=0 / bframes=8 / b_pyramid=2 / b_adapt=2 / b_bias=0 / direct=3 / weightb=1 / open_gop=0 / weightp=2 / keyint=240 / keyint_min=121 / scenecut=40 / intra_refresh=0 / rc_lookahead=40 / rc=2pass / mbtree=1 / bitrate=500 / ratetol=1.0 / qcomp=0.60 / qpmin=0 / qpmax=69 / qpstep=4 / cplxblur=20.0 / qblur=0.5 / ip_ratio=1.40 / aq=1:1.00
mdhd_Duration : 2500752
Audio
ID : 2
Format : AAC
Format/Info : Advanced Audio Codec
Format profile : LC
Codec ID : 40
Duration : 41mn 40s
Bit rate mode : Variable
Bit rate : 128 Kbps
Channel(s) : 2 channels
Channel positions : Front: L R
Sampling rate : 48.0 KHz
Compression mode : Lossy
Stream size : 38.1 MiB (20%)

Релиз от:



   Похожие торренты   Торрент   Размер 
В этой теме нет новых непрочитанных сообщений. Хроники Шаннары / The Shannara Chronicles [S01] (2016 ) HDRip-AVC | AlexFilm

86 | 36

10.97 ГБ

В этой теме нет новых непрочитанных сообщений. Хроники Шаннары / The Shannara Chronicles [01-08 из 10] (2016) WEB-DL 720p | AlexFilm, Jaskier, LostFilm

169 | 103

10.9 ГБ

В этой теме нет новых непрочитанных сообщений. Хроники Шаннары / The Shannara Chronicles [S01] (2016) WEB-DL 720p | AlexFilm, Jaskier, LostFilm

976 | 826

13.67 ГБ

В этой теме нет новых непрочитанных сообщений. Хроники Шаннары / The Shannara Chronicles [01х01-07 из 10] (2015) WEB-DLRip от GeneralFilm | Jaskier

27 | 31

3.19 ГБ

В этой теме нет новых непрочитанных сообщений. Хроники Шаннары / The Shannara Chronicles [01х01-07 из 10] (2015) WEB-DLRip от GeneralFilm | Jaskier

105 | 389

3.65 ГБ

В этой теме нет новых непрочитанных сообщений. Хроники Шаннары / The Shannara Chronicles [S01] (2016) WEB-DLRip | КПК | LostFilm

33 | 5

1.85 ГБ

В этой теме нет новых непрочитанных сообщений. Хроники Шаннары / The Shannara Chronicles [01х01-04 из 10] (2016) WEB-DLRip | HamsterStudio

2394 | 813

1.56 ГБ




Вы не можете начинать темы
Вы не можете отвечать на сообщения
Вы не можете редактировать свои сообщения
Вы не можете удалять свои сообщения
Вы не можете добавлять вложения

Перейти:  
Для Мосгорсуда, Роскомнадзора и рекламодателей: mosgorsud-torrent[собачка]yandex.ru
 Вход
ppkBB3cker v.2 © 2008-2014 @ PPK
[ Time : 0.179s | 15 Queries | GZIP : Off ]

Торрент трекер RUTOR.IN, Не можете зайти на rutor.org? Какой новый адрес рутор? Какое зеркало рутор? Не работает rutor.org и зеркала? Тогда наш торрент специально для вас. Rutor.in неофициальное зеркало rutor. В случае если у Вас заблокирован rutor или вдруг Вы не можете на него зайти, то Вы без труда сможете скачать бесплатно и без рекламы последние новинки кино, игр, сериалов и прочего у нас, на Rutor.in. Не нужно использовать прокси, чтобы зайти на рутор, достаточно воспользоваться нашим ресурсом. Все новые фильмы, игры, сериалы, книги и музыка за 2013 и 2014 годы через торрент бесплатно. Скачивайте фильмы в хорошем качестве, игры для пк, xbox, playstation без регистрации. У нас вы найдете новые Зарубежные сериалы и Русские сериалы 2013, 2014, 2015 годов. Оставайтесь с нами, качайте любимые фильмы, игры, сериалы, книги и музыку.
cron