img image001 image001 image001 image001 image001 image001 image001 image001 image001 image001 image001 image001 image001 image001 image001

Planets Sun Sun Sun
Статистика раздачи
Автор: Nickolas3434 | Размер: 1.86 ГБ | Добавлен: 31 мар 2016
Раздают: 18    Качают: 3
Скачать торрент
Скачать торрент
Описание торрента

СообщениеДобавлено: 31 мар 2016 


Информация о фильме
Оригинальное название: Золото Глории
Год выхода: 2012
Жанр: Приключения, фэнтэзи, семейный
Режиссер: Алексей Колмогоров.
В ролях: Евгений Стычкин, Павел Майков, Михаил Евланов, Сергей Газаров, Александр Робак, Максим Лагашкин, Екатерина Стулова, Екатерина Стулова.
О фильме:
Трое друзей прилетают из Москвы в Гавану. На первый взгляд - обычные туристы. На самом же деле они ищут золото с испанского корабля «Глория», затонувшего в 1673 году. Наши герои — опытные кладоискатели, профессионалы. Из Гаваны они выезжают к Карибскому морю, в бухту, где должен быть клад. Но по дороге неким мистическим образом перемещаются в прошлое, и ровно в тот год, когда золото было спрятано. Кладоискатели попадают в плен к пиратам и становятся непосредственными участниками событий той эпохи. Но теперь задачей друзей является не только поиск золота, но и поиск дороги обратно — в свое время. Кто и зачем отправил их в прошлое?

Страна: Россия
Студия: Синемафор
Продолжительность: 8 x ~ 00:52:00
Перевод: Не требуется
Файл
Формат: MP4
Качество: WEB-DLRip | КПК
Видео: MPEG-4 AVC (x264), 640x360, ~500 kbps, 25.000 fps
Аудио: AAC LC, 44.1 KHz, 2 ch, 128 Kbps
Субтитры: Нет
Семпл

Complete name : E:KinoZoloto.Glorii.(08.serii.iz.08).2012.AVC.WEB-DLRip.KPK.GFZoloto.Glorii.(02.seriya.iz.08).2012.AVC.WEB-DLRip.KPK.GF.mp4
Format : MPEG-4
Codec ID : M4V
File size : 236 MiB
Duration : 52mn 5s
Overall bit rate mode : Variable
Overall bit rate : 633 Kbps
Writing application : Lavf53.19.0
Video
ID : 1
Format : AVC
Format/Info : Advanced Video Codec
Format profile : High@L4.1
Format settings, CABAC : Yes
Format settings, ReFrames : 8 frames
Codec ID : avc1
Codec ID/Info : Advanced Video Coding
Duration : 52mn 5s
Bit rate : 500 Kbps
Width : 640 pixels
Height : 360 pixels
Display aspect ratio : 16:9
Frame rate mode : Constant
Frame rate : 25.000 fps
Color space : YUV
Chroma subsampling : 4:2:0
Bit depth : 8 bits
Scan type : Progressive
Bits/(Pixel*Frame) : 0.087
Stream size : 186 MiB (79%)
Writing library : x264 core 130 r2273 b3065e6
Encoding settings : cabac=1 / ref=8 / deblock=1:-2:-2 / analyse=0x3:0x133 / me=umh / subme=10 / psy=1 / psy_rd=1.00:0.00 / mixed_ref=1 / me_range=24 / chroma_me=1 / trellis=2 / 8x8dct=1 / cqm=0 / deadzone=21,11 / fast_pskip=1 / chroma_qp_offset=-2 / threads=12 / lookahead_threads=2 / sliced_threads=0 / nr=0 / decimate=0 / interlaced=0 / bluray_compat=0 / constrained_intra=0 / bframes=8 / b_pyramid=2 / b_adapt=2 / b_bias=0 / direct=3 / weightb=1 / open_gop=0 / weightp=2 / keyint=250 / keyint_min=126 / scenecut=40 / intra_refresh=0 / rc_lookahead=40 / rc=2pass / mbtree=1 / bitrate=500 / ratetol=1.0 / qcomp=0.60 / qpmin=0 / qpmax=69 / qpstep=4 / cplxblur=20.0 / qblur=0.5 / ip_ratio=1.40 / aq=1:1.00
Audio
ID : 2
Format : AAC
Format/Info : Advanced Audio Codec
Format profile : LC
Codec ID : 40
Duration : 52mn 5s
Bit rate mode : Variable
Bit rate : 128 Kbps
Channel(s) : 2 channels
Channel positions : Front: L R
Sampling rate : 44.1 KHz
Compression mode : Lossy
Stream size : 47.7 MiB (20%)

Релиз от:



   Похожие торренты   Торрент   Размер 
В этой теме нет новых непрочитанных сообщений. Золото Глории [01-08 из 08] (2012) DVDRip от Generalfilm | КПК | Лицензия

441 | 32

1.41 ГБ

В этой теме нет новых непрочитанных сообщений. Золото Глории [01-08 из 08] (2013) DVDRip от Generalfilm | КПК

39 | 13

1.65 ГБ

В этой теме нет новых непрочитанных сообщений. Золото Глории [01-08 из 08] (2013) DVDRip

1787 | 315

5.11 ГБ

В этой теме нет новых непрочитанных сообщений. Золото Глории [01-08 из 08] (2013) DVDRip-AVC от aivik_kot

193 | 130

9.36 ГБ

В этой теме нет новых непрочитанных сообщений. Discovery. Золото льдов / Ледяное золото / Ice Cold Gold [S02] (2014) HDTVRip от GeneralFilm | P1

35 | 11

4.78 ГБ

В этой теме нет новых непрочитанных сообщений. Discovery. Золото льдов / Ледяное золото / Ice Cold Gold [03x01] (2015) HDTVRip от GeneralFilm | P1

6 | 4

1.6 ГБ

В этой теме нет новых непрочитанных сообщений. Discovery. Золото льдов / Ледяное золото / Ice Cold Gold [03x01] (2015) HDTVRip от GeneralFilm | P1

31 | 39

4.78 ГБ




Вы не можете начинать темы
Вы не можете отвечать на сообщения
Вы не можете редактировать свои сообщения
Вы не можете удалять свои сообщения
Вы не можете добавлять вложения

Перейти:  
Для Мосгорсуда, Роскомнадзора и рекламодателей: mosgorsud-torrent[собачка]yandex.ru
 Вход
ppkBB3cker v.2 © 2008-2014 @ PPK
[ Time : 0.071s | 14 Queries | GZIP : Off ]

Торрент трекер RUTOR.IN, Не можете зайти на rutor.org? Какой новый адрес рутор? Какое зеркало рутор? Не работает rutor.org и зеркала? Тогда наш торрент специально для вас. Rutor.in неофициальное зеркало rutor. В случае если у Вас заблокирован rutor или вдруг Вы не можете на него зайти, то Вы без труда сможете скачать бесплатно и без рекламы последние новинки кино, игр, сериалов и прочего у нас, на Rutor.in. Не нужно использовать прокси, чтобы зайти на рутор, достаточно воспользоваться нашим ресурсом. Все новые фильмы, игры, сериалы, книги и музыка за 2013 и 2014 годы через торрент бесплатно. Скачивайте фильмы в хорошем качестве, игры для пк, xbox, playstation без регистрации. У нас вы найдете новые Зарубежные сериалы и Русские сериалы 2013, 2014, 2015 годов. Оставайтесь с нами, качайте любимые фильмы, игры, сериалы, книги и музыку.