img image001 image001 image001 image001 image001 image001 image001 image001 image001 image001 image001 image001 image001 image001 image001

Planets Sun Sun Sun
Статистика раздачи
Автор: PriZraK | Размер: 16.88 ГБ | Добавлен: 03 апр 2016
Раздают: 3    Качают: 8
Скачать торрент
Скачать торрент
Описание торрента

СообщениеДобавлено: 03 апр 2016 

Название: Оттенки синего
Оригинальное название: Shades Of Blue
Год выхода: 2016
Жанр: драма, криминал
Режиссеры: Барри Левинсон, Милисент Шелтон
В ролях:
Дженнифер Лопез, Дреа де Маттео, Хэмптон Флакер, Сантино Фонтана, Сара Джеффри, Уоррен Коул, Винсент Лареска, Рэй Лиотта и др.
О сериале:
Харли Сантос – сексуальная женщина-детектив, работающая в Нью-Йорке, а в свободное от службы время – мать одиночка. Полицейская дорожка приводит её в дружный коллектив грязных копов, с удовольствием берущих взятки, покрывающих преступников и занимающихся иными видами криминальной деятельности, с которой вообще-то призваны бороться. Харли не отстаёт в зарабатывании нечестного бабла от своих коллег. Но, если те левыми доходами обеспечивают себе красивую жизнь, то Харли деньги нужны для другого. С их помощью она хочет обеспечить достойное будущее для собственной дочери – девочки талантливой и честной. Проблемы начинаются, когда героиня попадает в сети ФБР. Сотрудники Бюро принуждают её стучать на тех, кто ещё вчера был ей друзьями-приятелями. А значит, придётся идти по тонкой линии между любовью и изменившимися обстоятельствами, предательством и честью.
Страна: США
Продолжительность: ~ 00:45:00
Перевод: Профессиональный (многоголосый, закадровый) IdeaFilm
Субтитры: Отсутствуют

Файл
Формат: MKV
Качество: WEB-DL 720р
Видео: 1280x720 (16:9), 23.976 fps, MPEG-4 AVC ~3170 kbps avg, 0.143 bit/pixel
Аудио RUS: 48 kHz, AC3 Dolby Digital, 3/2 (L,C,R,l,r) + LFE ch, ~384.00 kbps
Аудио ENG: 48 kHz, AC3 Dolby Digital, 3/2 (L,C,R,l,r) + LFE ch, ~384.00 kbps
Релиз группа:

Format : Matroska
Format version : Version 4 / Version 2
File size : 1.29 GiB
Duration : 43mn 12s
Overall bit rate : 4 276 Kbps
Encoded date : UTC 2015-10-02 22:08:58
Writing application : mkvmerge v8.4.0 ('A better way to fly') 64bit
Writing library : libebml v1.3.1 + libmatroska v1.4.2
DURATION : 00:43:02.944000000
NUMBER_OF_FRAMES : 80717
NUMBER_OF_BYTES : 123981312
_STATISTICS_WRITING_APP : mkvmerge v8.4.0 ('A better way to fly') 64bit
_STATISTICS_WRITING_DATE_UTC : 2015-10-02 22:08:58
_STATISTICS_TAGS : BPS DURATION NUMBER_OF_FRAMES NUMBER_OF_BYTES
Video
ID : 1
Format : AVC
Format/Info : Advanced Video Codec
Format profile : High@L3.2
Format settings, CABAC : Yes
Format settings, ReFrames : 2 frames
Codec ID : V_MPEG4/ISO/AVC
Duration : 43mn 12s
Bit rate : 3 423 Kbps
Width : 1 280 pixels
Height : 720 pixels
Display aspect ratio : 16:9
Frame rate mode : Constant
Frame rate : 23.976 fps
Standard : NTSC
Color space : YUV
Chroma subsampling : 4:2:0
Bit depth : 8 bits
Scan type : Progressive
Bits/(Pixel*Frame) : 0.155
Stream size : 1.03 GiB (80%)
Language : English
Default : Yes
Forced : No
Color range : Limited
Color primaries : BT.709
Transfer characteristics : BT.709
Matrix coefficients : BT.709
Audio #1
ID : 2
Format : AC-3
Format/Info : Audio Coding 3
Mode extension : CM (complete main)
Format settings, Endianness : Big
Codec ID : A_AC3
Duration : 43mn 12s
Bit rate mode : Constant
Bit rate : 384 Kbps
Channel(s) : 6 channels
Channel positions : Front: L C R, Side: L R, LFE
Sampling rate : 48.0 KHz
Bit depth : 16 bits
Compression mode : Lossy
Stream size : 119 MiB (9%)
Title : IDEAFILM
Language : Russian
Default : Yes
Forced : No
Audio #2
ID : 3
Format : AC-3
Format/Info : Audio Coding 3
Mode extension : CM (complete main)
Format settings, Endianness : Big
Codec ID : A_AC3
Duration : 43mn 12s
Bit rate mode : Constant
Bit rate : 384 Kbps
Channel(s) : 6 channels
Channel positions : Front: L C R, Side: L R, LFE
Sampling rate : 48.0 KHz
Bit depth : 16 bits
Compression mode : Lossy
Delay relative to video : 10s 0ms
Stream size : 119 MiB (9%)
Language : English
Default : No
Forced : No
Внимание! Раздача ведётся путём добавления новых серий; при каждом добавлении создаётся новый торрент. Чтобы начать докачку новой серии, пользователям необходимо сделать следующее:
(1) остановить скачивание,
(2) удалить старый торрент у себя из клиента (старые серии удалять не надо),
(3) скачать новый торрент и запустить его у себя в клиенте вместо старого, при этом указать клиенту путь в старую папку куда и должно происходить скачивание новых серий.
Ваш клиент при этом должен произвести хеширование (проверку) старой папки (если не производит сам - помогите ему сделать это), и будет докачивать только те серии которых у вас ещё нет. Старые серии при этом не удаляются, а продолжают раздаваться!
Eсли вы уже удалили старые серии, то предотвратить повторную закачку старых серий можно, отжав галочку в соответсвующих местах при запуске нового торрента. По возможности, желательно не удалять старые серии как можно дольше чтобы релизёр не столько продолжал раздавать старые серии, а смог сконцентрироваться на новых.



   Похожие торренты   Торрент   Размер 
В этой теме нет новых непрочитанных сообщений. Оттенки синего / Shades of Blue [01х01-09 из 13] (2016) WEB-DL 720p | IdeaFilm

14 | 68

12.9 ГБ

В этой теме нет новых непрочитанных сообщений. Оттенки синего / Shades of Blue [01х01-10 из 13] (2016) WEB-DL 720p | IdeaFilm

8 | 14

14.29 ГБ

В этой теме нет новых непрочитанных сообщений. Оттенки синего / Shades of Blue [01х01-12 из 13] (2016) WEB-DLRip | IdeaFilm

12 | 4

5.07 ГБ

В этой теме нет новых непрочитанных сообщений. Оттенки синего / Shades of Blue [01х01-09 из 13] (2016) WEB-DLRip | IdeaFilm

30 | 111

3.85 ГБ

В этой теме нет новых непрочитанных сообщений. Оттенки синего / Shades of Blue [01х01-10 из 13] (2016) WEB-DLRip | IdeaFilm

6 | 19

4.28 ГБ

В этой теме нет новых непрочитанных сообщений. Оттенки синего / Shades of Blue [01х01-02 из 13] (2015) WEB-DL 720p | IdeaFilm

52 | 20

2.9 ГБ

В этой теме нет новых непрочитанных сообщений. Оттенки синего / Shades of Blue [01х01-02 из 13] (2015) WEB-DLRip | IdeaFilm

50 | 38

864.23 МБ




Вы не можете начинать темы
Вы не можете отвечать на сообщения
Вы не можете редактировать свои сообщения
Вы не можете удалять свои сообщения
Вы не можете добавлять вложения

Перейти:  
Для Мосгорсуда, Роскомнадзора и рекламодателей: mosgorsud-torrent[собачка]yandex.ru
 Вход
ppkBB3cker v.2 © 2008-2014 @ PPK
[ Time : 0.064s | 15 Queries | GZIP : Off ]

Торрент трекер RUTOR.IN, Не можете зайти на rutor.org? Какой новый адрес рутор? Какое зеркало рутор? Не работает rutor.org и зеркала? Тогда наш торрент специально для вас. Rutor.in неофициальное зеркало rutor. В случае если у Вас заблокирован rutor или вдруг Вы не можете на него зайти, то Вы без труда сможете скачать бесплатно и без рекламы последние новинки кино, игр, сериалов и прочего у нас, на Rutor.in. Не нужно использовать прокси, чтобы зайти на рутор, достаточно воспользоваться нашим ресурсом. Все новые фильмы, игры, сериалы, книги и музыка за 2013 и 2014 годы через торрент бесплатно. Скачивайте фильмы в хорошем качестве, игры для пк, xbox, playstation без регистрации. У нас вы найдете новые Зарубежные сериалы и Русские сериалы 2013, 2014, 2015 годов. Оставайтесь с нами, качайте любимые фильмы, игры, сериалы, книги и музыку.