img image001 image001 image001 image001 image001 image001 image001 image001 image001 image001 image001 image001 image001 image001 image001

Planets Sun Sun Sun
Статистика раздачи
Автор: Nickolas3434 | Размер: 698.84 МБ | Добавлен: 04 апр 2016
Раздают: 31    Качают: 11
Скачать торрент
Скачать торрент
Описание торрента

СообщениеДобавлено: 04 апр 2016 

Название: Обитель лжи
Оригинальное название: House of lies
Год выхода: 2016
Жанр: драма, комедия
Режиссер:
Стивен Хопкинс, Адам Бернштейн, Мигель Артета
В ролях:
Дон Чидл, Кристен Белл, Бен Шварц, Джош Лоусон, Доун Оливери, Донис Леонард мл., Глинн Тёрмен, Мэгалин Эчиканвоке, Грег Джерманн, Джон Эйлуорд и др.
Описание сериала:
Необычный и язвительный взгляд на очень успешного и беспощадного консультанта по вопросам управления Марти, который не брезгует никакими средствами, чтобы получить нужную для его клиентов информацию.

Страна: США
Производство: Refugee Productions
Продолжительность: ~ 00:30:00
Перевод: Любительский (двухголосый) Sunshine Studio
Субтитры: Отсутствуют
Реклама: Присутствует
Файл
Формат: MKV
Качество: HDTV 720р
Видео: MPEG-4 AVC, 3500 Кбит/с, 1280x720
Аудио: 48 kHz, AC3 Dolby Digital, 2/0 (L,R) ch, ~192 kbps
Релиз группа:

Формат : Matroska
Версия формата : Version 2
Размер файла : 699 Мбайт
Продолжительность : 27 м.
Общий поток : 3560 Кбит/сек
Дата кодирования : UTC 2016-04-03 13:03:36
Программа кодирования : mkvmerge v4.9.1 ('Ich will') built on Sep 21 2011 17:48:11
Библиотека кодирования : libebml v1.2.1 + libmatroska v1.2.0
Видео
Идентификатор : 1
Формат : AVC
Формат/Информация : Advanced Video Codec
Профиль формата : High@L3
Параметр CABAC формата : Нет
Параметр ReFrames формата : 1 кадр
Режим смешивания : Header stripping
Идентификатор кодека : V_MPEG4/ISO/AVC
Продолжительность : 27 м.
Битрейт : 3297 Кбит/сек
Номинальный битрейт : 3500 Кбит/сек
Ширина : 1280 пикселей
Высота : 720 пикселей
Соотношение сторон : 16:9
Режим частоты кадров : Постоянный
Частота кадров : 29,970 (29970/1000) кадров/сек
Цветовое пространство : YUV
Субдискретизация насыщенности : 4:2:0
Битовая глубина : 8 бит
Тип развёртки : Прогрессивная
Бит/(Пиксели*Кадры) : 0.119
Размер потока : 647 Мбайт (93%)
Библиотека кодирования : x264 core 80 r1378+57 6f6b50a
Настройки программы : cabac=0 / ref=1 / deblock=1:0:0 / analyse=0x3:0x113 / me=hex / subme=7 / psy=1 / psy_rd=1.0:0.0 / mixed_ref=0 / me_range=16 / chroma_me=1 / trellis=0 / 8x8dct=1 / cqm=0 / deadzone=21,11 / fast_pskip=1 / chroma_qp_offset=-2 / threads=6 / sliced_threads=0 / nr=0 / decimate=1 / mbaff=0 / constrained_intra=0 / bframes=0 / wpredp=2 / keyint=250 / keyint_min=25 / scenecut=40 / rc_lookahead=40 / rc=abr / mbtree=1 / bitrate=3500 / ratetol=1.0 / qcomp=0.60 / qpmin=10 / qpmax=51 / qpstep=4 / ip_ratio=1.40 / aq=1:1.00
Default : Да
Forced : Нет
Аудио
Идентификатор : 2
Формат : AC-3
Формат/Информация : Audio Coding 3
Расширение режима : CM (complete main)
Параметр Endianness формата : Big
Режим смешивания : Header stripping
Идентификатор кодека : A_AC3
Продолжительность : 27 м.
Вид битрейта : Постоянный
Битрейт : 192 Кбит/сек
Каналы : 2 канала
Расположение каналов : Front: L R
Частота : 48,0 КГц
Частота кадров : 31,250 кадров/сек (1536 spf)
Метод сжатия : С потерями
Размер потока : 37,7 Мбайт (5%)
Default : Да
Forced : Нет
Внимание! Раздача ведётся путём добавления новых серий; при каждом добавлении создаётся новый торрент. Чтобы начать докачку новой серии, пользователям необходимо сделать следующее:
(1) остановить скачивание,
(2) удалить старый торрент у себя из клиента (старые серии удалять не надо),
(3) скачать новый торрент и запустить его у себя в клиенте вместо старого, при этом указать клиенту путь в старую папку куда и должно происходить скачивание новых серий.
Ваш клиент при этом должен произвести хеширование (проверку) старой папки (если не производит сам - помогите ему сделать это), и будет докачивать только те серии которых у вас ещё нет. Старые серии при этом не удаляются, а продолжают раздаваться!
Eсли вы уже удалили старые серии, то предотвратить повторную закачку старых серий можно, отжав галочку в соответсвующих местах при запуске нового торрента. По возможности, желательно не удалять старые серии как можно дольше чтобы релизёр не столько продолжал раздавать старые серии, а смог сконцентрироваться на новых.



   Похожие торренты   Торрент   Размер 
В этой теме нет новых непрочитанных сообщений. Обитель лжи / House of lies [05х01 из 12] (2016) HDTVRip | Sunshine Studio

40 | 9

363.28 МБ

В этой теме нет новых непрочитанных сообщений. Стрела / Arrow [05х01-07 из 23] (2016) HDTVRip 720р | Sunshine Studio

11 | 99

6.15 ГБ

В этой теме нет новых непрочитанных сообщений. Обитель лжи / House of Lies [S05] (2016) HDTV 720p | Gears Media

27 | 18

6.86 ГБ

В этой теме нет новых непрочитанных сообщений. Обитель лжи / House of Lies [05x01-05 из 10] (2016) HDTV 720p | Gears Media

5 | 27

3.52 ГБ

В этой теме нет новых непрочитанных сообщений. Обитель лжи / House of Lies [05x01-06 из 10] (2016) HDTV 720p | Gears Media

2 | 7

4.18 ГБ

В этой теме нет новых непрочитанных сообщений. Обитель лжи / House of Lies [05x01-07 из 10] (2016) HDTV 720p | Gears Media

0 | 4

4.85 ГБ

В этой теме нет новых непрочитанных сообщений. Обитель лжи / House of Lies [05x01-03 из 10] (2016) HDTV 720p | Gears Media

19 | 4

2.31 ГБ




Вы не можете начинать темы
Вы не можете отвечать на сообщения
Вы не можете редактировать свои сообщения
Вы не можете удалять свои сообщения
Вы не можете добавлять вложения

Перейти:  
Для Мосгорсуда, Роскомнадзора и рекламодателей: mosgorsud-torrent[собачка]yandex.ru
 Вход
ppkBB3cker v.2 © 2008-2014 @ PPK
[ Time : 0.041s | 15 Queries | GZIP : Off ]

Торрент трекер RUTOR.IN, Не можете зайти на rutor.org? Какой новый адрес рутор? Какое зеркало рутор? Не работает rutor.org и зеркала? Тогда наш торрент специально для вас. Rutor.in неофициальное зеркало rutor. В случае если у Вас заблокирован rutor или вдруг Вы не можете на него зайти, то Вы без труда сможете скачать бесплатно и без рекламы последние новинки кино, игр, сериалов и прочего у нас, на Rutor.in. Не нужно использовать прокси, чтобы зайти на рутор, достаточно воспользоваться нашим ресурсом. Все новые фильмы, игры, сериалы, книги и музыка за 2013 и 2014 годы через торрент бесплатно. Скачивайте фильмы в хорошем качестве, игры для пк, xbox, playstation без регистрации. У нас вы найдете новые Зарубежные сериалы и Русские сериалы 2013, 2014, 2015 годов. Оставайтесь с нами, качайте любимые фильмы, игры, сериалы, книги и музыку.