img image001 image001 image001 image001 image001 image001 image001 image001 image001 image001 image001 image001 image001 image001 image001

Planets Sun Sun Sun
Статистика раздачи
Автор: Nickolas3434 | Размер: 672.53 МБ | Добавлен: 04 апр 2016
Раздают: 1    Качают: 0
Скачать торрент
Скачать торрент
Описание торрента

СообщениеДобавлено: 04 апр 2016 


Информация о фильме
Название: Вайнона Эрп
Оригинальное название: Wynonna Earp
Год выхода: 2016
Жанр: Фэнтези, боевик, триллер, драма, детектив, вестерн
Режиссер: Рон Мерфи, Питер Стеббингс, Бретт Салливан
В ролях: Мелани Скрофано, Кэтерин Баррелл, Тим Розон, Шамир Андерсон, Грег Лосон, Анна Куик, Доминик Провост-Чалкли, Кейт Драммонд, Дэвид Нэйсом
О фильме:Мистический вестерн о большой любительнице приключений. Смотрите онлайн Вайнона Эрп, чем приходится заниматься девушке и её друзьям. Так сложилось, что предок Вайноны был великий Уайетт Эрп, один из тех, кто покорил Дикий Запад. Как и он, девушка обожает пить виски и кутить с друзьями, но если Вайнона чует опасность, она превращается совсем в другого человека – смелую охотницу на нечисть. Никакие демоны её не страшат. Она отважно бросается в бой и отправляет все зловещие создания обратно в ад. Помогают ей в этом её верные друзья – настоящая поисковая команда. С их помощью и благодаря своему особому чутью Вайнона безошибочно определяет порождения другого мира.
Страна: США, Канада, Seven24 Films
Продолжительность: 1 x ~ 00:44:00
Перевод: Любительский многоголосый (BaibaKo)
Файл
Кодек: XviD
Качество: WEB-DLRip
Видео: XviD, ~ 1800 Кбит/с, 720x400
Звук: AC3, 6 ch, 384 Кбит/с

Видео
Идентификатор : 0
Формат : MPEG-4 Visual
Профиль формата : Advanced Simple@L5
Параметр BVOP формата : 2
Параметр QPel формата : Нет
Параметр GMC формата : Без точки перехода
Параметр матрицы формата : Выборочная
Идентификатор кодека : XVID
Идентификатор кодека/Подсказка : XviD
Продолжительность : 43 м.
Битрейт : 1788 Кбит/сек
Ширина : 720 пикселей
Высота : 400 пикселей
Соотношение сторон : 16:9
Частота кадров : 23,976 кадра/сек
Цветовое пространство : YUV
Субдискретизация насыщенности : 4:2:0
Битовая глубина : 8 бит
Тип развёртки : Прогрессивная
Метод сжатия : С потерями
Бит/(Пиксели*Кадры) : 0.259
Размер потока : 551 Мбайт (82%)
Библиотека кодирования : XviD 64
Аудио
Идентификатор : 1
Формат : AC-3
Формат/Информация : Audio Coding 3
Расширение режима : CM (complete main)
Параметр Endianness формата : Big
Идентификатор кодека : 2000
Продолжительность : 43 м.
Вид битрейта : Постоянный
Битрейт : 384 Кбит/сек
Каналы : 6 каналов
Расположение каналов : Front: L C R, Side: L R, LFE
Частота : 48,0 КГц
Битовая глубина : 16 бит
Метод сжатия : С потерями
Размер потока : 118 Мбайт (18%)
Выравнивание : Разделение по промежуткам
Продолжительность промежутка : 42 мс. (1,00 видеокадр)
Время предзагрузки промежутка : 500 мс.

Релиз от:
Автор релиза:



   Похожие торренты   Торрент   Размер 
В этой теме нет новых непрочитанных сообщений. Вайнона Эрп / Wynonna Earp [S01] (2016) WEB-DLRip | BaibaKo

46 | 24

7.46 ГБ

В этой теме нет новых непрочитанных сообщений. Вайнона Эрп / Wynonna Earp [01x01-10 из 13] (2016) WEB-DLRip | Кравец

24 | 12

5.79 ГБ

В этой теме нет новых непрочитанных сообщений. Вайнона Эрп / Wynonna Earp [01x01-08 из 13] (2016) WEB-DLRip | Кравец

6 | 1

4.54 ГБ

В этой теме нет новых непрочитанных сообщений. Вайнона Эрп / Wynonna Earp [01x01-12 из 13] (2016) WEB-DLRip | Кравец

65 | 15

7.02 ГБ

В этой теме нет новых непрочитанных сообщений. Вайнона Эрп / Wynonna Earp [01x01 из 13] (2016) WEB-DLRip | ViruseProject

6 | 1

659.75 МБ

В этой теме нет новых непрочитанных сообщений. Вайнона Эрп / Wynonna Earp [01x01-02 из 13] (2016) WEB-DLRip | ViruseProject

0 | 0

1.29 ГБ

В этой теме нет новых непрочитанных сообщений. Вайнона Эрп / Wynonna Earp [01x01-03 из 13] (2016) WEB-DLRip | ViruseProject

0 | 0

1.93 ГБ




Вы не можете начинать темы
Вы не можете отвечать на сообщения
Вы не можете редактировать свои сообщения
Вы не можете удалять свои сообщения
Вы не можете добавлять вложения

Перейти:  
Для Мосгорсуда, Роскомнадзора и рекламодателей: mosgorsud-torrent[собачка]yandex.ru
 Вход
ppkBB3cker v.2 © 2008-2014 @ PPK
[ Time : 0.525s | 15 Queries | GZIP : Off ]

Торрент трекер RUTOR.IN, Не можете зайти на rutor.org? Какой новый адрес рутор? Какое зеркало рутор? Не работает rutor.org и зеркала? Тогда наш торрент специально для вас. Rutor.in неофициальное зеркало rutor. В случае если у Вас заблокирован rutor или вдруг Вы не можете на него зайти, то Вы без труда сможете скачать бесплатно и без рекламы последние новинки кино, игр, сериалов и прочего у нас, на Rutor.in. Не нужно использовать прокси, чтобы зайти на рутор, достаточно воспользоваться нашим ресурсом. Все новые фильмы, игры, сериалы, книги и музыка за 2013 и 2014 годы через торрент бесплатно. Скачивайте фильмы в хорошем качестве, игры для пк, xbox, playstation без регистрации. У нас вы найдете новые Зарубежные сериалы и Русские сериалы 2013, 2014, 2015 годов. Оставайтесь с нами, качайте любимые фильмы, игры, сериалы, книги и музыку.