img image001 image001 image001 image001 image001 image001 image001 image001 image001 image001 image001 image001 image001 image001 image001

Planets Sun Sun Sun
Статистика раздачи
Автор: Nickolas3434 | Размер: 3 ГБ | Добавлен: 06 апр 2016
Раздают: 0    Качают: 0
Скачать торрент
Скачать торрент
Описание торрента

СообщениеДобавлено: 06 апр 2016 

Кошмарный учитель / Nightmare Teacher
Страна: Южная Корея
Жанр: детектив, школа, мистика
Год выпуска: 2016
Продолжительность: 12 серии ~ 15 минут
Перевод: Любительский (двухголосый закадровый)
Cубтитры: русские - хардсаба нет
Оригинальная аудиодорожка: Корейская
В ролях: Ом Ки Чжун, Ким Со Хён, Ли Мин Хёк, Со Шин Э, Пэк Сын До
Описание:
Новая вэб-дорама посвящена загадочным происшествиям в обычной корейской школе. Президент класса Ё Рим решает разобраться в странных событиях, происходящих в школе, которые стали происходить с приходом нового учителя.
Релиз группы:
Доп. информация:
Перевод осуществляла команда фансаб-группы "Альянс"
Перевод: Бонист
Редакция: Daleko
Тайпсет: Mar222ina
Озвучивание: Ворон и Элейн

Смотреть обязательно с форсированными субтитрами на надписи!
Прежде чем качать видео и комментировать, скачайте сэмпл и послушайте!

Качество видео: 1080р HDTVRip - Сэмпл
Формат видео: MKV
Видео: 1920 x 1080 (1.78:1), 23,976 fps, H.264/AVC Encoder ~4146 kbps avg, 0.083 bit/pixel
Аудио: 48 kHz, AC3 Dolby Digital, 2/0 (L,R) ch, ~192 kbps (Русский)
Аудио 2: 48 kHz, AC3 Dolby Digital, 2/0 (L,R) ch, ~192 kbps (Корейский)
Формат субтитров: [форсированный(надписи) / полные]softsub (ass)


Формат : Matroska
Версия формата : Version 4 / Version 2
Размер файла : 482 Мбайт
Продолжительность : 14 м.
Общий поток : 4542 Кбит/сек
Дата кодирования : UTC 2016-04-05 18:44:09
Программа кодирования : mkvmerge v8.2.0 ('World of Adventure') 32bit
Библиотека кодирования : libebml v1.3.1 + libmatroska v1.4.2
Attachments : a_FuturaRoundDemi_1.ttf / Pollock3CTT_0.ttf / tahomabd_2.ttf / TrixieCyr-Plain.otf
Видео
Идентификатор : 1
Формат : AVC
Формат/Информация : Advanced Video Codec
Профиль формата : High@L4
Параметр CABAC формата : Да
Параметр ReFrames формата : 3 кадра
Идентификатор кодека : V_MPEG4/ISO/AVC
Продолжительность : 14 м.
Битрейт : 4146 Кбит/сек
Ширина : 1920 пикселей
Высота : 1080 пикселей
Соотношение сторон : 16:9
Режим частоты кадров : Переменный
Частота кадров : 23,976 кадра/сек
Цветовое пространство : YUV
Субдискретизация насыщенности : 4:2:0
Битовая глубина : 8 бит
Тип развёртки : Прогрессивная
Бит/(Пиксели*Кадры) : 0.083
Размер потока : 440 Мбайт (91%)
Default : Да
Forced : Нет
Аудио #1
Идентификатор : 2
Формат : AC-3
Формат/Информация : Audio Coding 3
Расширение режима : CM (complete main)
Параметр Endianness формата : Big
Идентификатор кодека : A_AC3
Продолжительность : 14 м.
Вид битрейта : Постоянный
Битрейт : 192 Кбит/сек
Каналы : 2 канала
Расположение каналов : Front: L R
Частота : 48,0 КГц
Частота кадров : 31,250 кадров/сек (1536 spf)
Метод сжатия : С потерями
Размер потока : 20,4 Мбайт (4%)
Заголовок : Ворон и Элейн
Язык : Russian
Default : Да
Forced : Нет
Аудио #2
Идентификатор : 3
Формат : AC-3
Формат/Информация : Audio Coding 3
Расширение режима : CM (complete main)
Параметр Endianness формата : Big
Идентификатор кодека : A_AC3
Продолжительность : 14 м.
Вид битрейта : Постоянный
Битрейт : 192 Кбит/сек
Каналы : 2 канала
Расположение каналов : Front: L R
Частота : 48,0 КГц
Частота кадров : 31,250 кадров/сек (1536 spf)
Метод сжатия : С потерями
Размер потока : 20,4 Мбайт (4%)
Заголовок : Original
Язык : Korean
Default : Нет
Forced : Нет
Текст #1
Идентификатор : 4
Формат : ASS
Идентификатор кодека : S_TEXT/ASS
Идентификатор кодека/Информация : Advanced Sub Station Alpha
Продолжительность : 14 м.
Битрейт : 11 бит/сек
Count of elements : 11
Метод сжатия : Без потерь
Размер потока : 1,20 Кбайт (0%)
Заголовок : форсированный(надписи)
Язык : Russian
Default : Да
Forced : Да
Текст #2
Идентификатор : 5
Формат : ASS
Идентификатор кодека : S_TEXT/ASS
Идентификатор кодека/Информация : Advanced Sub Station Alpha
Продолжительность : 14 м.
Битрейт : 123 бит/сек
Count of elements : 168
Метод сжатия : Без потерь
Размер потока : 13,2 Кбайт (0%)
Заголовок : Перевод - фансаб-группы "Альянс"
Язык : Russian
Default : Нет
Forced : Нет

Dialogue: 0,0:01:00.46,0:01:02.86,текст основа,,0,0,0,,Со Сан У!
Dialogue: 0,0:01:04.76,0:01:08.22,текст основа,,0,0,0,,Ела вечером рамен?NВсё лицо опухло.
Dialogue: 0,0:01:08.30,0:01:10.21,текст основа,,0,0,0,,А ну, удали!
Dialogue: 0,0:01:11.77,0:01:16.88,текст основа,,0,0,0,,Пока дрыхла, я стал твоимNзамом и проверил расписание.
Dialogue: 0,0:01:17.69,0:01:19.47,текст основа,,0,0,0,,Оказалось, что урок отменили.
Dialogue: 0,0:01:19.86,0:01:20.99,текст основа,,0,0,0,,О чём ты?
Dialogue: 0,0:01:21.19,0:01:27.32,текст основа,,0,0,0,,Наш классный загремел в больницу.NКажется, скатился с лестницы.
Dialogue: 0,0:01:27.52,0:01:28.82,текст основа,,0,0,0,,Его позвоночник...
Dialogue: 0,0:01:29.86,0:01:30.57,текст основа,,0,0,0,,хрясь.
Dialogue: 0,0:01:31.60,0:01:32.64,текст основа,,0,0,0,,Правда?
Dialogue: 0,0:01:32.99,0:01:35.33,текст основа,,0,0,0,,Его спина как его жизнь.
Dialogue: 0,0:01:35.67,0:01:39.09,текст основа,,0,0,0,,Его будут оперировать,Nтак что вернётся не скоро.
Dialogue: 0,0:01:40.45,0:01:41.93,текст основа,,0,0,0,,Что же делать?
Dialogue: 0,0:01:44.31,0:01:45.54,текст основа,,0,0,0,,Ё Рим,
Dialogue: 0,0:01:46.50,0:01:48.67,текст основа,,0,0,0,,почему так волнуешься за него?
Dialogue: 0,0:01:49.00,0:01:51.97,текст основа,,0,0,0,,Эта сволочь измывалась над нами.
Dialogue: 0,0:01:52.74,0:01:54.09,текст основа,,0,0,0,,Хватит.
Dialogue: 0,0:01:57.00,0:01:59.30,текст основа,,0,0,0,,Может, угостишь
Dialogue: 0,0:02:01.07,0:02:03.47,текст основа,,0,0,0,,своего муженька раменом?
Dialogue: 0,0:02:03.85,0:02:07.25,текст основа,,0,0,0,,Я вот всегда думаюNо своей жёнушке.
Dialogue: 0,0:02:08.88,0:02:11.03,текст основа,,0,0,0,,Какой ещё муж?
Dialogue: 0,0:02:11.17,0:02:13.91,текст основа,,0,0,0,,Я тысячу раз говорила, но бестолку.
Dialogue: 0,0:02:14.37,0:02:17.00,текст основа,,0,0,0,,- Дай камеру!N- Нетушки.
Dialogue: 0,0:02:17.12,0:02:20.67,текст основа,,0,0,0,,- Отдай! Удали фото.N- Даже не мечтай.
Dialogue: 0,0:02:20.88,0:02:23.70,текст основа,,0,0,0,,Отдай мне камеру.
Dialogue: 0,0:02:26.89,0:02:29.17,текст за кадром,,0,0,0,,{i1}Ребят в моём классе{i}
Dialogue: 1,0:02:28.63,0:02:32.13,сноски,,0,0,0,,{fs28bord0c&H43494D&3c&HBEC1C0&frz2.884frx28fry2pos(647.524,348.419)}Пиль Хо
Dialogue: 0,0:02:29.73,0:02:31.78,текст за кадром,,0,0,0,,{i1}посещают странные мысли.{i}
Dialogue: 1,0:02:30.27,0:02:32.13,сноски,,0,0,0,,{p01\frz2.884frx28fry2c&H37343E&fscx28fscy44pos(721.333,357.2)}m 0 -18 b -43 -55 -43 23 -2 41 b 44 23 44 -55 0 -18 m 0 -16 b 38 -46 44 12 -2 39 b -43 12 -36 -46 0 -16
Dialogue: 0,0:02:30.27,0:02:30.31,сноски,,0,0,0,,{fs28bord0c&H43494D&frz2.884frx28fry2pos(743.924,347.219)}Ши
Dialogue: 0,0:02:30.31,0:02:32.13,сноски,,0,0,0,,{fs28bord0c&H43494D&frz2.884frx28fry2pos(762.924,346.619)}Ши Ён
Dialogue: 0,0:02:31.63,0:02:31.90,Default,,0,0,0,,-=Пиль Хо ♡ Ши Ён=-
Dialogue: 0,0:02:34.82,0:02:36.95,текст за кадром,,0,0,0,,{i1}Что будет, если начнётся война?

Субтитры выложены с разрешения фансаб-группы "Альянс"



   Похожие торренты   Торрент   Размер 
В этой теме нет новых непрочитанных сообщений. Мой босс, мой учитель / My Boss, My Teacher / Too-sa-boo-il-che (2006) DVDRip от BTT-TEAM

3 | 2

2.18 ГБ

В этой теме нет новых непрочитанных сообщений. Великий учитель Онидзука / GTO: Great Teacher Onizuka [01-09 из 12] (1998) DVDRip от BTT-TEAM

6 | 9

6.16 ГБ

В этой теме нет новых непрочитанных сообщений. Великий учитель Онидзука / GTO: Great Teacher Onizuka [01-03 из 12] (1998) DVDRip от BTT-TEAM

0 | 4

2.06 ГБ

В этой теме нет новых непрочитанных сообщений. Великий учитель Онидзука / GTO: Great Teacher Onizuka [01-06 из 12] (1998) DVDRip от BTT-TEAM

0 | 3

4.11 ГБ

В этой теме нет новых непрочитанных сообщений. Любимый учитель / The Perfect Teacher (2010) BDRip 1080p | P

52 | 5

7.42 ГБ

В этой теме нет новых непрочитанных сообщений. Учитель английского / The English Teacher (2013) Blu-ray 1080p от NovaLan

9 | 16

30.11 ГБ

В этой теме нет новых непрочитанных сообщений. Любимый учитель / The Perfect Teacher (2010) BDRemux 1080p | P

47 | 46

18.38 ГБ




Вы не можете начинать темы
Вы не можете отвечать на сообщения
Вы не можете редактировать свои сообщения
Вы не можете удалять свои сообщения
Вы не можете добавлять вложения

Перейти:  
Для Мосгорсуда, Роскомнадзора и рекламодателей: mosgorsud-torrent[собачка]yandex.ru
 Вход
ppkBB3cker v.2 © 2008-2014 @ PPK
[ Time : 0.111s | 18 Queries | GZIP : Off ]

Торрент трекер RUTOR.IN, Не можете зайти на rutor.org? Какой новый адрес рутор? Какое зеркало рутор? Не работает rutor.org и зеркала? Тогда наш торрент специально для вас. Rutor.in неофициальное зеркало rutor. В случае если у Вас заблокирован rutor или вдруг Вы не можете на него зайти, то Вы без труда сможете скачать бесплатно и без рекламы последние новинки кино, игр, сериалов и прочего у нас, на Rutor.in. Не нужно использовать прокси, чтобы зайти на рутор, достаточно воспользоваться нашим ресурсом. Все новые фильмы, игры, сериалы, книги и музыка за 2013 и 2014 годы через торрент бесплатно. Скачивайте фильмы в хорошем качестве, игры для пк, xbox, playstation без регистрации. У нас вы найдете новые Зарубежные сериалы и Русские сериалы 2013, 2014, 2015 годов. Оставайтесь с нами, качайте любимые фильмы, игры, сериалы, книги и музыку.
cron