img image001 image001 image001 image001 image001 image001 image001 image001 image001 image001 image001 image001 image001 image001 image001

Planets Sun Sun Sun
Статистика раздачи
Автор: Nickolas3434 | Размер: 5.71 ГБ | Добавлен: 08 апр 2016
Раздают: 0    Качают: 3
Скачать торрент
Скачать торрент
Описание торрента

СообщениеДобавлено: 08 апр 2016 

Название: Парни из Трейлерпарка
Оригинальное название: Trailer Park Boys
Год выхода: 2016
Жанр: драма, комедия, криминал
Режиссер:
Майкл Клаттенберг
В ролях:
Робб Уэллс, Джон Пол Тремблэ, Майк Смит, Кори Боулз, Джерри Ди, Юджин Кларк, Хью Диллон, Николь Хильтц и др.
Описание сериала:
Trailer Park Boys - лишь небольшой кусок вселенной трейлерпарка Саннивейл, придуманной тремя школьными друзьями из Новой Шотландии. Задумка, сделать героями монкьюментэри-шоу трех закадычных друзей, ведущих категорически антисоциальный образ жизни, из малобюджетной черно-белой короткометражки превратилась в целую эпопею.

Страна: Канада
Производство: Showcase Television, Topsail Entertainment
Продолжительность: ~ 00:25:00
Перевод: Любительский (двухголосый) Sunshine Studio
Субтитры: Отсутствуют
Реклама: Присутствует
Файл
Формат: MKV
Качество: WEB-DL 720р
Видео: MPEG-4 AVC, ~ 5000 Кбит/с, 1280х720
Аудио: 48 kHz, AC3 Dolby Digital, 2/0 (L,R) ch, ~192 kbps
Релиз группа:

Формат : Matroska
Версия формата : Version 2
Размер файла : 997 Мбайт
Продолжительность : 27 м.
Общий поток : 4979 Кбит/сек
Дата кодирования : UTC 2016-04-06 00:05:06
Программа кодирования : mkvmerge v4.9.1 ('Ich will') built on Sep 21 2011 17:48:11
Библиотека кодирования : libebml v1.2.1 + libmatroska v1.2.0
Видео
Идентификатор : 1
Формат : AVC
Формат/Информация : Advanced Video Codec
Профиль формата : High@L4
Параметр CABAC формата : Нет
Параметр ReFrames формата : 1 кадр
Идентификатор кодека : V_MPEG4/ISO/AVC
Продолжительность : 27 м.
Битрейт : 4688 Кбит/сек
Номинальный битрейт : 5000 Кбит/сек
Ширина : 1280 пикселей
Высота : 720 пикселей
Соотношение сторон : 16:9
Режим частоты кадров : Постоянный
Частота кадров : 25,000 кадров/сек
Цветовое пространство : YUV
Субдискретизация насыщенности : 4:2:0
Битовая глубина : 8 бит
Тип развёртки : Прогрессивная
Бит/(Пиксели*Кадры) : 0.203
Размер потока : 938 Мбайт (94%)
Библиотека кодирования : x264 core 80 r1378+57 6f6b50a
Настройки программы : cabac=0 / ref=1 / deblock=1:0:0 / analyse=0x3:0x113 / me=hex / subme=7 / psy=1 / psy_rd=1.0:0.0 / mixed_ref=0 / me_range=16 / chroma_me=1 / trellis=0 / 8x8dct=1 / cqm=0 / deadzone=21,11 / fast_pskip=1 / chroma_qp_offset=-2 / threads=6 / sliced_threads=0 / nr=0 / decimate=1 / mbaff=0 / constrained_intra=0 / bframes=0 / wpredp=2 / keyint=250 / keyint_min=25 / scenecut=40 / rc_lookahead=40 / rc=abr / mbtree=1 / bitrate=5000 / ratetol=1.0 / qcomp=0.60 / qpmin=10 / qpmax=51 / qpstep=4 / ip_ratio=1.40 / aq=1:1.00
Default : Да
Forced : Нет
Аудио
Идентификатор : 2
Формат : AC-3
Формат/Информация : Audio Coding 3
Расширение режима : CM (complete main)
Параметр Endianness формата : Big
Режим смешивания : Header stripping
Идентификатор кодека : A_AC3
Продолжительность : 27 м.
Вид битрейта : Постоянный
Битрейт : 192 Кбит/сек
Каналы : 2 канала
Расположение каналов : Front: L R
Частота : 48,0 КГц
Частота кадров : 31,250 кадров/сек (1536 spf)
Метод сжатия : С потерями
Размер потока : 38,4 Мбайт (4%)
Default : Да
Forced : Нет
Внимание! Раздача ведётся путём добавления новых серий; при каждом добавлении создаётся новый торрент. Чтобы начать докачку новой серии, пользователям необходимо сделать следующее:
(1) остановить скачивание,
(2) удалить старый торрент у себя из клиента (старые серии удалять не надо),
(3) скачать новый торрент и запустить его у себя в клиенте вместо старого, при этом указать клиенту путь в старую папку куда и должно происходить скачивание новых серий.
Ваш клиент при этом должен произвести хеширование (проверку) старой папки (если не производит сам - помогите ему сделать это), и будет докачивать только те серии которых у вас ещё нет. Старые серии при этом не удаляются, а продолжают раздаваться!
Eсли вы уже удалили старые серии, то предотвратить повторную закачку старых серий можно, отжав галочку в соответсвующих местах при запуске нового торрента. По возможности, желательно не удалять старые серии как можно дольше чтобы релизёр не столько продолжал раздавать старые серии, а смог сконцентрироваться на новых.



   Похожие торренты   Торрент   Размер 
В этой теме нет новых непрочитанных сообщений. Парни из Трейлерпарка / Trailer Park Boys [10х01-03 из 10] (2016) WEB-DL 720р | Sunshine Studio

1 | 0

3.09 ГБ

В этой теме нет новых непрочитанных сообщений. Парни из Трейлерпарка / Trailer Park Boys [10х01-03 из 10] (2016) WEB-DLRip | Sunshine Studio

1 | 0

1.9 ГБ

В этой теме нет новых непрочитанных сообщений. Парни из Трейлерпарка / Trailer Park Boys [10х01-06 из 10] (2016) WEB-DLRip | Sunshine Studio

0 | 2

3.51 ГБ

В этой теме нет новых непрочитанных сообщений. Парни из Трейлерпарка / Trailer Park Boys [S01-04] (2001–2004) DVDRip-AVC | А

0 | 0

8.77 ГБ

В этой теме нет новых непрочитанных сообщений. Парни из Трейлерпарка: Не легализуйте это / Trailer Park Boys: Don't Legalize It (2014) BDRip 720p | Jimmy J.

175 | 10

3.06 ГБ

В этой теме нет новых непрочитанных сообщений. Парни из трейлер парка: Обратный отсчет до дня алкашей / Trailer Park Boys: Countdown to Liquor Day (2009) HDRip

9 | 1

1.41 ГБ

В этой теме нет новых непрочитанных сообщений. Лед / Ice [01х01 из 07] (2016) HDTVRip 720р | Sunshine Studio

113 | 10

1.76 ГБ




Вы не можете начинать темы
Вы не можете отвечать на сообщения
Вы не можете редактировать свои сообщения
Вы не можете удалять свои сообщения
Вы не можете добавлять вложения

Перейти:  
Для Мосгорсуда, Роскомнадзора и рекламодателей: mosgorsud-torrent[собачка]yandex.ru
 Вход
ppkBB3cker v.2 © 2008-2014 @ PPK
[ Time : 1.523s | 15 Queries | GZIP : Off ]

Торрент трекер RUTOR.IN, Не можете зайти на rutor.org? Какой новый адрес рутор? Какое зеркало рутор? Не работает rutor.org и зеркала? Тогда наш торрент специально для вас. Rutor.in неофициальное зеркало rutor. В случае если у Вас заблокирован rutor или вдруг Вы не можете на него зайти, то Вы без труда сможете скачать бесплатно и без рекламы последние новинки кино, игр, сериалов и прочего у нас, на Rutor.in. Не нужно использовать прокси, чтобы зайти на рутор, достаточно воспользоваться нашим ресурсом. Все новые фильмы, игры, сериалы, книги и музыка за 2013 и 2014 годы через торрент бесплатно. Скачивайте фильмы в хорошем качестве, игры для пк, xbox, playstation без регистрации. У нас вы найдете новые Зарубежные сериалы и Русские сериалы 2013, 2014, 2015 годов. Оставайтесь с нами, качайте любимые фильмы, игры, сериалы, книги и музыку.